<?xml version="1.0" standalone="no"?>
<!DOCTYPE svg PUBLIC "-//W3C//DTD SVG 1.1//EN" "http://www.w3.org/Graphics/SVG/1.1/DTD/svg11.dtd" >
<svg xmlns="http://www.w3.org/2000/svg">
<metadata>
<json>
<![CDATA[
{
	"fontFamily": "Rank-Math",
	"majorVersion": 1,
	"minorVersion": 0,
	"fontURL": "",
	"license": "",
	"description": "Font generated by IcoMoon.",
	"copyright": "",
	"version": "Version 1.0",
	"fontId": "Rank-Math",
	"psName": "Rank-Math",
	"subFamily": "Regular",
	"fullName": "Rank-Math"
}
]]>
</json>
</metadata>
<defs>
<font id="Rank-Math" horiz-adv-x="1024">
<font-face units-per-em="1024" ascent="1170.2857142857142" descent="146.28571428571428" />
<missing-glyph horiz-adv-x="1024" />
<glyph unicode="&#x20;" horiz-adv-x="0" d="" />
<glyph unicode="&#xe900;" glyph-name="rank-math" data-tags="rank-math" d="M1023.934 691.523l-168.816-7.602 29.765-46.542-281.471-179.92-279.255 117.309-324.157-135.128 22.473-53.945 301.639 125.687 284.951-119.681 307.38 196.387 29.765-46.542zM119.902 518.784l204.299 85.128 9.951-4.189v120.966h-214.25zM587.321 1014.283v-520.943l16.090-6.649 198.204 126.44v401.151zM353.634 591.434l214.25-90.026v366.112h-214.25z" />
<glyph unicode="&#xe901;" glyph-name="google" data-tags="google" horiz-adv-x="860" d="M438.857 749.143h414.286c4-22.286 6.857-44 6.857-73.143 0-250.286-168-428.571-421.143-428.571-242.857 0-438.857 196-438.857 438.857s196 438.857 438.857 438.857c118.286 0 217.714-43.429 294.286-114.857l-119.429-114.857c-32.571 31.429-89.714 68-174.857 68-149.714 0-272-124-272-277.143s122.286-277.143 272-277.143c173.714 0 238.857 124.571 249.143 189.143h-249.143v150.857z" />
<glyph unicode="&#xe902;" glyph-name="copy" data-tags="copy" d="M810 284v598h-468v-598h468zM810 966q34 0 60-25t26-59v-598q0-34-26-60t-60-26h-468q-34 0-60 26t-26 60v598q0 34 26 59t60 25h468zM682 1138v-86h-512v-598h-84v598q0 34 25 60t59 26h512z" />
<glyph unicode="&#xea2e;" glyph-name="mobile" data-tags="mobile" horiz-adv-x="1317" d="M966.857 1212h-617.143c-59.657 0-106.971-47.314-106.971-106.971v-1102.629c0-59.657 47.314-106.971 106.971-106.971h617.143c59.657 0 106.971 47.314 106.971 106.971v1102.629c2.057 59.657-47.314 106.971-106.971 106.971zM1014.171 2.4c0-24.686-20.571-45.257-45.257-45.257h-619.2c-24.686 0-45.257 20.571-45.257 45.257v1102.629c-2.057 24.686 18.514 45.257 45.257 45.257h617.143c24.686 0 45.257-20.571 45.257-45.257v-1102.629zM658.286 224.571c-53.486 0-98.743-45.257-98.743-98.743s45.257-98.743 98.743-98.743c53.486 0 98.743 45.257 98.743 98.743s-45.257 98.743-98.743 98.743zM658.286 88.8c-20.571 0-37.029 16.457-37.029 37.029s16.457 37.029 37.029 37.029 37.029-16.457 37.029-37.029-16.457-37.029-37.029-37.029zM726.171 1039.2h-135.771c-16.457 0-30.857-14.4-30.857-30.857s14.4-30.857 30.857-30.857h135.771c16.457 0 30.857 14.4 30.857 30.857s-14.4 30.857-30.857 30.857z" />
<glyph unicode="&#xea3a;" glyph-name="role-manager" data-tags="role-manager" horiz-adv-x="1317" d="M580.114 662.743c156.343 0 283.886 123.429 283.886 273.6 0 152.229-127.543 275.657-283.886 275.657s-283.886-123.429-283.886-273.6c2.057-152.229 127.543-275.657 283.886-275.657zM580.114 1150.286c123.429 0 222.171-96.686 222.171-213.943s-98.743-211.886-222.171-211.886-222.171 94.629-222.171 211.886 100.8 213.943 222.171 213.943zM1238.4 171.086c0 152.229-123.429 275.657-275.657 275.657-26.743 0-53.486-4.114-78.171-12.343-86.4 65.829-193.371 102.857-304.457 102.857-277.714 0-504-226.286-504-504v-65.829c0-41.143 32.914-74.057 74.057-74.057h859.886c16.457 0 32.914 6.171 45.257 16.457 106.971 41.143 183.086 141.943 183.086 261.257zM1102.629 333.6l-310.629-288c-24.686 34.971-41.143 78.171-41.143 125.486 0 117.257 96.686 213.943 213.943 213.943 51.429 0 100.8-20.571 137.829-51.429zM150.171-42.857c-6.171 0-12.343 6.171-12.343 12.343v65.829c0 242.743 197.486 442.286 442.286 442.286 86.4 0 166.629-24.686 238.629-69.943-78.171-49.371-131.657-135.771-131.657-234.514 0-86.4 39.086-162.514 102.857-213.943h-639.771zM962.743-42.857c-49.371 0-92.571 16.457-129.6 43.2l308.571 285.943c22.629-32.914 34.971-74.057 34.971-115.2 0-117.257-94.629-213.943-213.943-213.943z" />
<glyph unicode="&#xea43;" glyph-name="calendar" data-tags="calendar" horiz-adv-x="1317" d="M1221.943 1000.114h-109.029v94.629c0 16.457-14.4 30.857-30.857 30.857s-30.857-14.4-30.857-30.857v-96.686h-785.829v96.686c0 16.457-14.4 30.857-30.857 30.857s-30.857-12.343-30.857-30.857v-96.686h-109.029c-51.429 0-92.571-41.143-92.571-92.571v-833.143c0-51.429 41.143-92.571 92.571-92.571h1127.314c51.429 0 92.571 41.143 92.571 92.571v835.2c0 49.371-41.143 92.571-92.571 92.571zM63.771 650.4h257.143v-261.257h-257.143v261.257zM380.571 650.4h246.857v-261.257h-246.857v261.257zM627.429 327.429v-285.943h-246.857v285.943h246.857zM689.143 327.429h246.857v-285.943h-246.857v285.943zM689.143 389.143v261.257h246.857v-261.257h-246.857zM997.714 650.4h257.143v-261.257h-257.143v261.257zM94.629 938.4h109.029v-94.629c0-16.457 14.4-30.857 30.857-30.857s30.857 14.4 30.857 30.857v94.629h787.886v-94.629c0-16.457 14.4-30.857 30.857-30.857s30.857 14.4 30.857 30.857v94.629h109.029c16.457 0 30.857-14.4 30.857-30.857v-195.429h-1191.086v195.429c0 16.457 12.343 30.857 30.857 30.857zM63.771 74.4v253.029h257.143v-285.943h-226.286c-18.514 2.057-30.857 14.4-30.857 32.914zM1221.943 43.543h-226.286v283.886h257.143v-255.086c0-16.457-12.343-28.8-30.857-28.8z" />
<glyph unicode="&#xea4f;" glyph-name="sitemap" data-tags="sitemap" horiz-adv-x="1317" d="M1114.971 298.629c-69.943 0-127.543-49.371-141.943-113.143h-55.543v279.771h102.857c131.657 0 236.571 100.8 236.571 226.286s-106.971 226.286-236.571 226.286c-24.686 0-49.371-4.114-74.057-12.343 2.057 10.286 2.057 18.514 2.057 28.8 0 154.286-129.6 277.714-290.057 277.714s-288-123.429-288-275.657c0-10.286 0-20.571 2.057-28.8-24.686 8.229-49.371 12.343-74.057 12.343-131.657 0-236.571-100.8-236.571-226.286s106.971-226.286 236.571-226.286h102.857v-279.771h-55.543c-14.4 65.829-72 113.143-141.943 113.143-80.229 0-144-65.829-144-144 0-80.229 65.829-144 144-144 69.943 0 127.543 49.371 141.943 113.143h86.4c16.457 0 30.857 14.4 30.857 30.857v308.571h166.629v-283.886c-67.886-14.4-115.2-72-115.2-141.943 0-80.229 65.829-144 144-144s144 65.829 144 144c0 69.943-49.371 127.543-113.143 141.943v283.886h166.629v-310.629c0-16.457 14.4-30.857 30.857-30.857h86.4c14.4-65.829 72-113.143 141.943-113.143 80.229 0 144 65.829 144 144 0 80.229-65.829 144-144 144zM201.6 70.286c-45.257 0-82.286 37.029-82.286 82.286s37.029 82.286 82.286 82.286 82.286-37.029 82.286-82.286c2.057-45.257-34.971-82.286-82.286-82.286zM740.571 39.429c0-45.257-37.029-82.286-82.286-82.286s-82.286 37.029-82.286 82.286 37.029 82.286 82.286 82.286 82.286-34.971 82.286-82.286zM689.143 526.971v82.286c0 16.457-14.4 30.857-30.857 30.857s-30.857-14.4-30.857-30.857v-82.286h-166.629v82.286c0 16.457-14.4 30.857-30.857 30.857s-30.857-14.4-30.857-30.857v-82.286h-102.857c-96.686 0-174.857 74.057-174.857 164.571s78.171 164.571 174.857 164.571c37.029 0 72-10.286 102.857-30.857 10.286-8.229 26.743-6.171 37.029 2.057s14.4 22.629 10.286 34.971c-8.229 22.629-14.4 49.371-14.4 74.057 0 117.257 100.8 213.943 226.286 213.943s228.343-96.686 228.343-213.943c0-24.686-4.114-49.371-14.4-74.057-4.114-12.343-2.057-26.743 10.286-34.971 10.286-8.229 24.686-8.229 37.029-2.057 30.857 20.571 65.829 30.857 102.857 30.857 96.686 0 174.857-74.057 174.857-164.571s-78.171-164.571-174.857-164.571h-102.857v82.286c0 16.457-14.4 30.857-30.857 30.857s-30.857-14.4-30.857-30.857v-82.286h-168.686zM1114.971 70.286c-45.257 0-82.286 37.029-82.286 82.286s37.029 82.286 82.286 82.286 82.286-37.029 82.286-82.286-37.029-82.286-82.286-82.286z" />
<glyph unicode="&#xea5a;" glyph-name="import" data-tags="import" horiz-adv-x="1317" d="M754.971 477.6l-65.829-69.943v205.714c0 16.457-14.4 30.857-30.857 30.857s-30.857-14.4-30.857-30.857v-205.714l-65.829 69.943c-12.343 12.343-30.857 12.343-43.2 2.057s-12.343-30.857-2.057-43.2l106.971-113.143c8.229-10.286 22.629-14.4 34.971-14.4s24.686 6.171 34.971 14.4l106.971 113.143c12.343 12.343 10.286 32.914-2.057 43.2s-30.857 10.286-43.2-2.057zM1211.657 732.686c-59.657 63.771-141.943 109.029-230.4 121.371-47.314 78.171-117.257 135.771-199.543 164.571-37.029 14.4-78.171 20.571-123.429 20.571-207.771 0-376.457-166.629-380.571-372.343-154.286-10.286-277.714-141.943-277.714-300.343 0-164.571 133.714-298.286 298.286-298.286h623.314c218.057 0 394.971 176.914 394.971 394.971 0 98.743-37.029 195.429-104.914 269.486zM919.543 129.943h-621.257c-131.657 0-236.571 104.914-236.571 236.571s104.914 236.571 236.571 236.571h10.286c16.457 0 30.857 14.4 30.857 30.857v22.629c0 174.857 141.943 318.857 318.857 318.857 37.029 0 72-6.171 102.857-18.514 74.057-24.686 135.771-78.171 174.857-150.171 4.114-8.229 14.4-14.4 24.686-16.457 78.171-8.229 154.286-47.314 205.714-102.857 57.6-61.714 88.457-144 88.457-226.286 0-181.029-150.171-331.2-335.314-331.2z" />
<glyph unicode="&#xea5d;" glyph-name="export" data-tags="export" horiz-adv-x="1317" d="M701.486 650.4c-8.229 10.286-22.629 14.4-34.971 14.4s-24.686-6.171-34.971-14.4l-106.971-113.143c-12.343-12.343-10.286-32.914 2.057-43.2 6.171-6.171 14.4-8.229 20.571-8.229 8.229 0 16.457 4.114 22.629 10.286l65.829 69.943v-228.343c0-16.457 14.4-30.857 30.857-30.857s30.857 14.4 30.857 30.857v228.343l65.829-69.943c12.343-12.343 30.857-12.343 43.2-2.057 12.343 12.343 12.343 30.857 2.057 43.2l-106.971 113.143zM1211.657 732.686c-59.657 63.771-141.943 109.029-230.4 121.371-47.314 78.171-117.257 135.771-199.543 164.571-37.029 14.4-78.171 20.571-123.429 20.571-207.771 0-376.457-166.629-380.571-372.343-154.286-10.286-277.714-141.943-277.714-298.286 0-164.571 133.714-298.286 298.286-298.286h623.314c218.057-2.057 394.971 174.857 394.971 392.914 0 98.743-37.029 195.429-104.914 269.486zM919.543 129.943h-621.257c-131.657 0-236.571 104.914-236.571 238.629s104.914 236.571 236.571 236.571h10.286c16.457 0 30.857 14.4 30.857 30.857v22.629c0 174.857 141.943 318.857 318.857 318.857 37.029 0 72-6.171 102.857-16.457 74.057-24.686 135.771-78.171 174.857-150.171 4.114-8.229 14.4-14.4 24.686-16.457 78.171-8.229 154.286-47.314 205.714-102.857 57.6-61.714 88.457-144 88.457-226.286 0-185.143-150.171-335.314-335.314-335.314z" />
<glyph unicode="&#xea60;" glyph-name="settings" data-tags="settings" horiz-adv-x="1317" d="M660.343 812.914c-141.943 0-259.2-115.2-259.2-259.2 0-141.943 115.2-259.2 259.2-259.2 141.943 0 257.143 115.2 257.143 259.2 0 141.943-115.2 259.2-257.143 259.2zM660.343 356.229c-109.029 0-197.486 88.457-197.486 197.486s88.457 197.486 197.486 197.486 197.486-88.457 197.486-197.486c-2.057-109.029-90.514-197.486-197.486-197.486zM1291.886 399.429l-133.714 72c-2.057 2.057-4.114 6.171-4.114 8.229 4.114 26.743 6.171 53.486 6.171 80.229 0 28.8-2.057 55.543-6.171 80.229 0 2.057 0 6.171 2.057 8.229l135.771 76.114c20.571 12.343 28.8 37.029 18.514 57.6l-127.543 218.057c-12.343 18.514-37.029 26.743-57.6 18.514l-141.943-78.171h-4.114c-10.286 8.229-18.514 16.457-26.743 22.629-24.686 20.571-45.257 39.086-78.171 55.543-8.229 4.114-14.4 14.4-14.4 22.629v82.286c0 49.371-39.086 88.457-88.457 88.457h-226.286c-49.371 0-88.457-39.086-88.457-88.457v-86.4c0-10.286-6.171-18.514-14.4-22.629-32.914-16.457-53.486-34.971-80.229-55.543-8.229-6.171-16.457-14.4-24.686-20.571h-4.114l-129.6 67.886c-37.029 20.571-61.714 6.171-72-12.343l-123.429-211.886c-6.171-10.286-8.229-22.629-4.114-34.971s10.286-22.629 22.629-28.8l133.714-74.057c4.114 0 4.114-4.114 4.114-6.171-4.114-24.686-6.171-49.371-6.171-80.229 0-26.743 2.057-53.486 4.114-78.171 0-2.057 0-6.171-4.114-8.229l-137.829-76.114c-20.571-12.343-28.8-37.029-18.514-57.6l127.543-218.057c14.4-18.514 37.029-26.743 59.657-18.514l141.943 78.171h4.114c10.286-8.229 18.514-14.4 26.743-22.629 24.686-20.571 47.314-41.143 80.229-55.543 8.229-4.114 14.4-14.4 14.4-22.629v-96.686c0-49.371 39.086-88.457 88.457-88.457h228.343c49.371 0 88.457 39.086 88.457 88.457v98.743c0 10.286 6.171 18.514 14.4 22.629 30.857 14.4 53.486 32.914 78.171 55.543 8.229 6.171 16.457 14.4 26.743 22.629h4.114l127.543-72c34.971-20.571 61.714-6.171 72 12.343l125.486 213.943c6.171 10.286 8.229 22.629 4.114 34.971s-12.343 22.629-22.629 28.8zM1137.6 169.029l-125.486 69.943c-22.629 12.343-51.429 10.286-72-6.171-10.286-8.229-18.514-16.457-28.8-22.629-22.629-18.514-41.143-34.971-63.771-47.314-30.857-14.4-49.371-45.257-49.371-78.171v-98.743c0-14.4-12.343-26.743-26.743-26.743h-226.286c-14.4 0-26.743 12.343-26.743 26.743v96.686c0 32.914-20.571 63.771-49.371 78.171-24.686 12.343-43.2 26.743-67.886 47.314-8.229 8.229-18.514 14.4-26.743 22.629-12.343 10.286-26.743 14.4-41.143 14.4-10.286 0-22.629-2.057-32.914-8.229l-125.486-69.943-109.029 185.143 121.371 67.886c24.686 14.4 37.029 41.143 34.971 69.943-2.057 22.629-4.114 45.257-4.114 69.943 0 26.743 2.057 49.371 6.171 69.943 4.114 28.8-8.229 59.657-34.971 74.057l-119.314 65.829 109.029 185.143 125.486-69.943c22.629-12.343 51.429-10.286 72 6.171 10.286 8.229 18.514 14.4 26.743 22.629 22.629 20.571 41.143 34.971 67.886 47.314 30.857 14.4 49.371 45.257 49.371 78.171v84.343c0 14.4 12.343 26.743 26.743 26.743h228.343c14.4 0 26.743-12.343 26.743-26.743v-84.343c0-32.914 20.571-63.771 49.371-78.171 24.686-12.343 41.143-26.743 63.771-45.257 8.229-8.229 18.514-16.457 28.8-24.686 20.571-16.457 49.371-18.514 72-6.171l125.486 69.943 109.029-185.143-121.371-67.886c-24.686-14.4-39.086-43.2-32.914-72 4.114-20.571 6.171-43.2 6.171-69.943 0-22.629-2.057-45.257-6.171-69.943-4.114-28.8 8.229-57.6 34.971-72l119.314-63.771-113.143-185.143z" />
<glyph unicode="&#xea67;" glyph-name="desktop" data-tags="desktop" horiz-adv-x="1317" d="M1265.143 1154.4h-1213.714c-28.8 0-51.429-22.629-51.429-51.429v-814.629c0-28.8 22.629-51.429 51.429-51.429h446.4l-59.657-224.229h-121.371c-16.457 0-30.857-14.4-30.857-30.857s14.4-30.857 30.857-30.857h685.029c16.457 0 30.857 14.4 30.857 30.857s-14.4 30.857-30.857 30.857h-121.371l-59.657 224.229h446.4c28.8 0 51.429 22.629 51.429 51.429v814.629c-2.057 28.8-24.686 51.429-53.486 51.429zM816.686 14.743h-316.8l59.657 224.229h195.429l61.714-224.229zM1254.857 298.629h-1193.143v794.057h1193.143v-794.057z" />
<glyph unicode="&#xea6f;" glyph-name="htaccess" data-tags="htaccess" horiz-adv-x="1317" d="M1285.714 961.029h-613.029l-80.229 230.4c-4.114 12.343-16.457 20.571-28.8 20.571h-532.8c-16.457 0-30.857-14.4-30.857-30.857v-1254.857c0-16.457 14.4-30.857 30.857-30.857h1254.857c16.457 0 30.857 14.4 30.857 30.857v1003.886c0 16.457-14.4 30.857-30.857 30.857zM1254.857-42.857h-1193.143v1193.143h481.371l80.229-230.4c4.114-12.343 16.457-20.571 28.8-20.571h602.743v-942.171zM228.343 679.2c0-16.457 14.4-30.857 30.857-30.857h456.686c16.457 0 30.857 14.4 30.857 30.857s-14.4 30.857-30.857 30.857h-456.686c-16.457 0-30.857-14.4-30.857-30.857zM259.2 397.371h456.686c16.457 0 30.857 14.4 30.857 30.857s-14.4 30.857-30.857 30.857h-456.686c-16.457 0-30.857-14.4-30.857-30.857s14.4-30.857 30.857-30.857zM228.343 177.257c0-16.457 14.4-30.857 30.857-30.857h627.429c16.457 0 30.857 14.4 30.857 30.857s-14.4 30.857-30.857 30.857h-627.429c-16.457 0-30.857-14.4-30.857-30.857z" />
<glyph unicode="&#xea70;" glyph-name="robots" data-tags="robots" horiz-adv-x="1317" d="M1285.714 961.029h-613.029l-80.229 230.4c-4.114 12.343-16.457 20.571-28.8 20.571h-532.8c-16.457 0-30.857-14.4-30.857-30.857v-1254.857c0-16.457 14.4-30.857 30.857-30.857h1254.857c16.457 0 30.857 14.4 30.857 30.857v1003.886c0 16.457-14.4 30.857-30.857 30.857zM1254.857-42.857h-1193.143v1193.143h481.371l80.229-230.4c4.114-12.343 16.457-20.571 28.8-20.571h602.743v-942.171zM415.543 652.457c-10.286-6.171-16.457-16.457-16.457-26.743v-129.6c0-150.171 72-290.057 193.371-374.4l47.314-32.914c6.171-4.114 12.343-6.171 18.514-6.171s12.343 2.057 18.514 6.171l47.314 32.914c121.371 84.343 193.371 222.171 193.371 374.4v129.6c0 12.343-6.171 22.629-16.457 26.743l-228.343 117.257c-8.229 4.114-18.514 4.114-28.8 0l-228.343-117.257zM855.771 605.143v-111.086c0-129.6-61.714-250.971-166.629-322.971l-30.857-20.571-30.857 20.571c-104.914 72-166.629 193.371-166.629 322.971v111.086l197.486 102.857 197.486-102.857z" />
<glyph unicode="&#xea76;" glyph-name="category" data-tags="category" horiz-adv-x="1317" d="M1291.886 819.086c0 2.057 2.057 6.171 2.057 8.229v109.029c0 47.314-39.086 86.4-86.4 86.4h-559.543c-4.114 0-8.229 0-12.343-2.057l-18.514 47.314c-8.229 20.571-28.8 34.971-51.429 34.971h-510.171c-30.857 0-55.543-24.686-55.543-55.543v-987.429c0-30.857 24.686-55.543 55.543-55.543h1207.543c30.857 0 55.543 24.686 55.543 55.543v713.829c-2.057 18.514-12.343 34.971-26.743 45.257zM1207.543 961.029c12.343 0 24.686-10.286 24.686-24.686v-109.029h-518.4l-53.486 133.714h547.2zM1254.857 66.171h-1193.143v975.086h499.886l94.629-234.514c10.286-22.629 32.914-39.086 57.6-39.086h541.029v-701.486z" />
<glyph unicode="&#xea83;" glyph-name="link" data-tags="link" horiz-adv-x="1317" d="M1246.629 308.914l-181.029 181.029c-88.457 88.457-230.4 94.629-325.029 14.4l-131.657 131.657c34.971 43.2 55.543 94.629 55.543 152.229 0 65.829-24.686 125.486-69.943 172.8l-181.029 181.029c-94.629 94.629-246.857 94.629-341.486 0-47.314-47.314-72-106.971-72-172.8 0-63.771 24.686-125.486 69.943-170.743l178.971-181.029c47.314-47.314 109.029-69.943 170.743-69.943 49.371 0 98.743 16.457 141.943 45.257l135.771-135.771c-28.8-41.143-45.257-90.514-45.257-139.886 0-63.771 24.686-125.486 69.943-170.743l178.971-181.029c47.314-47.314 109.029-69.943 170.743-69.943s123.429 22.629 170.743 69.943c45.257 45.257 72 104.914 72 170.743 2.057 65.829-22.629 125.486-67.886 172.8zM294.171 662.743l-178.971 181.029c-34.971 32.914-53.486 78.171-53.486 125.486s18.514 92.571 53.486 127.543c34.971 34.971 80.229 53.486 127.543 53.486 45.257 0 92.571-18.514 127.543-53.486l181.029-181.029c31.842-33.494 51.43-78.9 51.43-128.881 0-0.253-0.001-0.505-0.002-0.758v0.039c0-39.086-14.4-78.171-37.029-109.029l-72 72c-12.343 12.343-30.857 12.343-43.2 0s-12.343-30.857 0-43.2l69.943-69.943c-72-43.2-164.571-34.971-226.286 26.743zM1201.371 10.629c-69.943-69.943-185.143-69.943-255.086 0l-178.971 181.029c-34.971 34.971-53.486 80.229-53.486 127.543 0 34.971 10.286 67.886 28.8 96.686l69.943-67.886c6.171-6.171 14.4-8.229 22.629-8.229s16.457 2.057 22.629 8.229c12.343 12.343 12.343 30.857 0 43.2l-69.943 69.943c32.914 24.686 72 37.029 111.086 37.029 45.257 0 92.571-18.514 127.543-53.486l181.029-181.029c32.914-34.971 51.429-80.229 51.429-127.543-4.114-47.314-22.629-92.571-57.6-125.486z" />
<glyph unicode="&#xea87;" glyph-name="local-seo" data-tags="local-seo" horiz-adv-x="1317" d="M658.286 1212c-292.114 0-530.743-230.4-530.743-514.286 0-246.857 380.571-666.514 497.829-787.886 8.229-10.286 20.571-14.4 34.971-14.4 12.343 0 24.686 6.171 34.971 14.4 117.257 123.429 497.829 541.029 497.829 787.886-4.114 283.886-242.743 514.286-534.857 514.286zM658.286-36.686c-220.114 232.457-469.029 559.543-469.029 734.4 0 250.971 209.829 452.571 469.029 452.571s469.029-201.6 469.029-452.571c0-174.857-248.914-501.943-469.029-734.4zM658.286 899.314c-123.429 0-224.229-96.686-224.229-216s100.8-216 224.229-216 224.229 96.686 224.229 216c0 117.257-100.8 216-224.229 216zM658.286 526.971c-88.457 0-162.514 69.943-162.514 154.286s72 154.286 162.514 154.286 162.514-69.943 162.514-154.286-74.057-154.286-162.514-154.286z" />
<glyph unicode="&#xea8f;" glyph-name="misc" data-tags="misc" horiz-adv-x="1317" d="M658.286 1212c-362.057 0-658.286-296.229-658.286-658.286s296.229-658.286 658.286-658.286 658.286 296.229 658.286 658.286-296.229 658.286-658.286 658.286zM658.286-42.857c-329.143 0-596.571 267.429-596.571 596.571s267.429 596.571 596.571 596.571 596.571-267.429 596.571-596.571-267.429-596.571-596.571-596.571zM884.571 845.829h-452.571c-16.457 0-30.857-14.4-30.857-30.857s14.4-30.857 30.857-30.857h452.571c16.457 0 30.857 14.4 30.857 30.857s-14.4 30.857-30.857 30.857zM884.571 584.571h-452.571c-16.457 0-30.857-14.4-30.857-30.857s14.4-30.857 30.857-30.857h452.571c16.457 0 30.857 14.4 30.857 30.857s-14.4 30.857-30.857 30.857zM884.571 323.314h-452.571c-16.457 0-30.857-14.4-30.857-30.857s14.4-30.857 30.857-30.857h452.571c16.457 0 30.857 14.4 30.857 30.857s-14.4 30.857-30.857 30.857z" />
<glyph unicode="&#xea9a;" glyph-name="software" data-tags="software" horiz-adv-x="1317" d="M1312.457 786.171l-104.914 327.086c-14.4 43.2-55.543 72-100.8 72h-884.571c-45.257 0-84.343-26.743-98.743-67.886l-117.257-329.143c-4.114-10.286-6.171-22.629-6.171-34.971v-728.229c0-57.6 47.314-104.914 104.914-104.914h1106.743c57.6 0 104.914 47.314 104.914 104.914v730.286c0 10.286-2.057 20.571-4.114 30.857zM1147.886 1094.743l94.629-298.286h-553.371v327.086h417.6c18.514 0 34.971-10.286 41.143-28.8zM181.029 1096.8c6.171 16.457 22.629 28.8 41.143 28.8h405.257v-327.086h-553.371l106.971 298.286zM1211.657-16.114h-1106.743c-24.686 0-43.2 18.514-43.2 43.2v707.657h1193.143v-709.714c0-22.629-18.514-41.143-43.2-41.143z" />
<glyph unicode="&#xeaa0;" glyph-name="image" data-tags="image" horiz-adv-x="1317" d="M1180.8 1212h-1045.029c-28.8 0-51.429-22.629-51.429-49.371v-1215.771c0-28.8 22.629-49.371 51.429-49.371h1045.029c26.743 0 49.371 22.629 49.371 49.371v1215.771c2.057 26.743-20.571 49.371-49.371 49.371zM1170.514 1150.286v-664.457c-18.514-10.286-37.029-22.629-53.486-34.971-30.857-20.571-61.714-47.314-90.514-72-82.286-72-160.457-141.943-267.429-102.857-20.571 8.229-43.2 24.686-63.771 43.2l-8.229 8.229c-51.429 41.143-106.971 86.4-176.914 106.971-115.2 34.971-220.114-30.857-312.686-90.514-18.514-12.343-34.971-22.629-53.486-32.914v839.314h1026.514zM146.057-42.857v281.829c2.057 2.057 4.114 4.114 6.171 4.114h2.057c26.743 14.4 53.486 30.857 78.171 47.314 84.343 53.486 172.8 109.029 261.257 82.286 57.6-16.457 106.971-57.6 154.286-96.686l8.229-6.171c22.629-20.571 49.371-43.2 82.286-53.486 28.8-10.286 57.6-16.457 82.286-16.457 98.743 0 176.914 67.886 246.857 129.6 28.8 24.686 55.543 49.371 84.343 67.886l18.514 12.343v-452.571h-1024.457zM829.029 580.457c96.686 0 172.8 78.171 172.8 172.8s-78.171 172.8-172.8 172.8-172.8-78.171-172.8-172.8 78.171-172.8 172.8-172.8zM829.029 864.343c61.714 0 111.086-49.371 111.086-111.086s-49.371-111.086-111.086-111.086-111.086 49.371-111.086 111.086 49.371 111.086 111.086 111.086z" />
<glyph unicode="&#xeaa9;" glyph-name="analyzer" data-tags="analyzer" horiz-adv-x="1317" d="M30.857 858.171c16.457 0 30.857 14.4 30.857 30.857v218.057h216c16.457 0 30.857 14.4 30.857 30.857s-14.4 30.857-30.857 30.857h-246.857c-16.457 0-30.857-14.4-30.857-30.857v-246.857c0-18.514 14.4-32.914 30.857-32.914zM1285.714 1168.8h-246.857c-16.457 0-30.857-14.4-30.857-30.857s14.4-30.857 30.857-30.857h216v-216c0-16.457 14.4-30.857 30.857-30.857s30.857 14.4 30.857 30.857v246.857c0 16.457-14.4 30.857-30.857 30.857zM1285.714 249.257c-16.457 0-30.857-14.4-30.857-30.857v-216h-216c-16.457 0-30.857-14.4-30.857-30.857s14.4-30.857 30.857-30.857h246.857c16.457 0 30.857 14.4 30.857 30.857v246.857c0 16.457-14.4 30.857-30.857 30.857zM277.714 2.4h-216v216c0 16.457-14.4 30.857-30.857 30.857s-30.857-14.4-30.857-30.857v-246.857c0-16.457 14.4-30.857 30.857-30.857h246.857c16.457 0 30.857 14.4 30.857 30.857s-14.4 30.857-30.857 30.857zM1084.114 533.143c10.286 12.343 10.286 28.8 0 41.143-8.229 8.229-193.371 218.057-425.829 218.057s-419.657-209.829-425.829-218.057c-10.286-12.343-10.286-28.8 0-41.143 8.229-8.229 193.371-218.057 425.829-218.057s419.657 209.829 425.829 218.057zM658.286 376.8c-166.629 0-310.629 125.486-360 176.914 51.429 49.371 195.429 176.914 360 176.914s310.629-125.486 360-176.914c-49.371-49.371-193.371-176.914-360-176.914zM573.943 553.714c0-47.314 39.086-86.4 84.343-86.4 47.314 0 84.343 39.086 84.343 86.4s-39.086 86.4-84.343 86.4c-47.314 0-84.343-39.086-84.343-86.4zM680.914 553.714c0-12.343-10.286-24.686-22.629-24.686s-22.629 10.286-22.629 24.686 10.286 24.686 22.629 24.686 22.629-12.343 22.629-24.686z" />
<glyph unicode="&#xeaab;" glyph-name="search" data-tags="search" horiz-adv-x="1317" d="M1304.229 6.514l-384.686 312.686c72 90.514 111.086 201.6 111.086 318.857 0 137.829-53.486 267.429-150.171 364.114-201.6 201.6-528.686 201.6-730.286 0-96.686-96.686-150.171-224.229-150.171-362.057s53.486-267.429 150.171-364.114c100.8-100.8 232.457-150.171 364.114-150.171s263.314 49.371 364.114 150.171l386.743-314.743c6.171-4.114 12.343-6.171 18.514-6.171 8.229 0 18.514 4.114 24.686 12.343 12.343 10.286 10.286 28.8-4.114 39.086zM195.429 319.2c-86.4 84.343-133.714 199.543-133.714 320.914s47.314 234.514 133.714 320.914c88.457 88.457 205.714 133.714 320.914 133.714 117.257 0 232.457-45.257 320.914-133.714 86.4-86.4 133.714-199.543 133.714-320.914s-47.314-234.514-133.714-320.914c-176.914-176.914-464.914-176.914-641.829 0z" />
<glyph unicode="&#xeab3;" glyph-name="star-filled" data-tags="star-filled" horiz-adv-x="1317" d="M1285.714 736.8l-411.429 63.771-185.143 390.857c-14.4 26.743-51.429 26.743-63.771 0l-185.143-392.914-411.429-61.714c-28.8-4.114-41.143-43.2-18.514-63.771l298.286-306.514-69.943-429.943c-4.114-28.8 24.686-53.486 51.429-37.029l368.229 201.6 370.286-199.543c24.686-14.4 55.543 8.229 51.429 37.029l-72 427.886 296.229 306.514c22.629 20.571 12.343 59.657-18.514 63.771z" />
<glyph unicode="&#xeab5;" glyph-name="star" data-tags="star" horiz-adv-x="1317" d="M1310.4 716.229c-10.286 28.8-34.971 49.371-63.771 55.543l-355.886 55.543-160.457 337.371c-12.343 28.8-41.143 47.314-72 47.314s-57.6-18.514-72-47.314l-160.457-339.429-355.886-57.6c-28.8-4.114-53.486-26.743-63.771-55.543-10.286-30.857-2.057-63.771 18.514-86.4l259.2-265.371-59.657-370.286c-6.171-32.914 8.229-63.771 32.914-82.286 14.4-10.286 28.8-14.4 45.257-14.4 12.343 0 26.743 4.114 37.029 10.286l318.857 174.857 318.857-172.8c26.743-14.4 57.6-12.343 82.286 4.114 26.743 18.514 39.086 49.371 32.914 82.286l-59.657 372.343 257.143 263.314c24.686 24.686 30.857 57.6 20.571 88.457zM1246.629 673.029l-261.257-267.429c-12.343-12.343-16.457-28.8-14.4-45.257l61.714-376.457c2.057-12.343-6.171-20.571-8.229-22.629-4.114-2.057-10.286-6.171-18.514-2.057l-325.029 174.857c-14.4 8.229-32.914 8.229-47.314 0l-322.971-176.914c-8.229-4.114-14.4-2.057-18.514 2.057-2.057 2.057-10.286 8.229-8.229 22.629l59.657 374.4c2.057 16.457-2.057 32.914-14.4 45.257l-261.257 267.429c-8.229 8.229-6.171 20.571-4.114 22.629 2.057 4.114 4.114 12.343 14.4 14.4l362.057 57.6c16.457 2.057 30.857 12.343 37.029 28.8l162.514 343.543c6.171 12.343 14.4 14.4 18.514 14.4s12.343-2.057 16.457-10.286l162.514-343.543c8.229-14.4 20.571-26.743 37.029-28.8l362.057-57.6c10.286-2.057 14.4-10.286 14.4-14.4 2.057-2.057 6.171-12.343-4.114-22.629z" />
<glyph unicode="&#xeaba;" glyph-name="trash" data-tags="trash" horiz-adv-x="1317" d="M1042.971 1053.6h-197.486v63.771c0 51.429-43.2 94.629-94.629 94.629h-183.086c-51.429 0-94.629-43.2-94.629-94.629v-63.771h-197.486c-51.429 0-92.571-41.143-92.571-92.571v-78.171c0-43.2 30.857-80.229 69.943-90.514l39.086-808.457c2.057-51.429 43.2-90.514 94.629-90.514h547.2c51.429 0 92.571 39.086 94.629 90.514l39.086 808.457c41.143 10.286 69.943 45.257 69.943 90.514v78.171c-2.057 51.429-45.257 92.571-94.629 92.571zM532.8 1117.371c0 18.514 14.4 32.914 32.914 32.914h183.086c18.514 0 32.914-14.4 32.914-32.914v-63.771h-248.914v63.771zM964.8-9.943c0-18.514-14.4-30.857-32.914-30.857h-547.2c-18.514 0-32.914 14.4-32.914 30.857l-39.086 802.286h689.143l-37.029-802.286zM1073.829 882.857c0-16.457-14.4-30.857-30.857-30.857h-769.371c-16.457 0-30.857 14.4-30.857 30.857v78.171c0 16.457 14.4 30.857 30.857 30.857h767.314c16.457 0 30.857-14.4 30.857-30.857v-78.171zM658.286 555.771c-16.457 0-30.857-14.4-30.857-30.857v-345.6c0-16.457 14.4-30.857 30.857-30.857s30.857 14.4 30.857 30.857v345.6c0 16.457-14.4 30.857-30.857 30.857zM866.057 510.514c-16.457 0-30.857-12.343-32.914-28.8l-14.4-257.143c0-16.457 12.343-30.857 28.8-32.914h2.057c16.457 0 30.857 12.343 30.857 28.8l14.4 259.2c0 16.457-12.343 30.857-28.8 30.857zM448.457 510.514c-16.457-2.057-30.857-16.457-28.8-32.914l16.457-259.2c0-16.457 14.4-28.8 30.857-28.8h2.057c16.457 2.057 30.857 16.457 28.8 32.914l-16.457 259.2c0 18.514-14.4 30.857-32.914 28.8z" />
<glyph unicode="&#xeac4;" glyph-name="users" data-tags="users" horiz-adv-x="1317" d="M409.371 633.943c129.6 0 232.457 100.8 232.457 226.286s-104.914 226.286-232.457 226.286-232.457-100.8-232.457-226.286 104.914-226.286 232.457-226.286zM409.371 1024.8c94.629 0 170.743-74.057 170.743-164.571s-76.114-164.571-170.743-164.571c-94.629 0-170.743 74.057-170.743 164.571s76.114 164.571 170.743 164.571zM973.029 529.029c109.029 0 197.486 86.4 197.486 193.371s-88.457 193.371-197.486 193.371-197.486-86.4-197.486-193.371c-2.057-106.971 86.4-193.371 197.486-193.371zM973.029 852c76.114 0 135.771-59.657 135.771-131.657s-61.714-131.657-135.771-131.657-135.771 59.657-135.771 131.657c-2.057 72 59.657 131.657 135.771 131.657zM981.257 465.257h-20.571c-80.229 0-156.343-28.8-216-80.229-69.943 96.686-183.086 160.457-312.686 160.457h-47.314c-211.886 0-384.686-172.8-384.686-384.686v-78.171c0-34.971 28.8-63.771 63.771-63.771h1195.2c32.914 0 57.6 26.743 57.6 57.6v53.486c0 187.2-150.171 335.314-335.314 335.314zM61.714 82.629v78.171c0 178.971 146.057 325.029 325.029 325.029h47.314c178.971 0 325.029-146.057 325.029-325.029v-78.171s0-2.057-2.057-2.057h-12.343l-682.971 2.057zM1254.857 82.629h-436.114v80.229c0 61.714-14.4 119.314-41.143 170.743 49.371 45.257 115.2 72 185.143 72h20.571c148.114-2.057 271.543-123.429 271.543-273.6v-49.371z" />
<glyph unicode="&#xeb6a;" glyph-name="images" data-tags="images" horiz-adv-x="1317" d="M458.743 352.114c63.771 0 117.257 51.429 117.257 117.257s-51.429 117.257-117.257 117.257-117.257-51.429-117.257-117.257 51.429-117.257 117.257-117.257zM458.743 522.857c30.857 0 55.543-24.686 55.543-55.543s-24.686-55.543-55.543-55.543-55.543 24.686-55.543 55.543 24.686 55.543 55.543 55.543zM1273.371 1212h-660.343c-24.686 0-43.2-18.514-43.2-43.2v-413.486h-526.629c-24.686 0-43.2-18.514-43.2-43.2v-773.486c0-24.686 18.514-43.2 43.2-43.2h660.343c22.629 0 43.2 18.514 43.2 43.2v413.486h526.629c24.686 0 43.2 18.514 43.2 43.2v773.486c0 24.686-18.514 43.2-43.2 43.2zM631.543 1150.286h623.314v-423.771c-20.571-10.286-41.143-20.571-49.371-26.743-20.571-14.4-39.086-30.857-57.6-47.314-59.657-51.429-100.8-82.286-158.4-61.714-10.286 4.114-22.629 12.343-32.914 22.629l-6.171 4.114c-32.914 26.743-69.943 57.6-115.2 69.943-28.8 8.229-55.543 8.229-86.4 2.057v22.629c0 24.686-18.514 43.2-43.2 43.2h-69.943v394.971zM685.029 693.6v-417.6c-10.286-6.171-26.743-18.514-49.371-32.914-20.571-14.4-39.086-30.857-57.6-47.314-59.657-51.429-100.8-82.286-158.4-61.714-12.343 4.114-24.686 14.4-37.029 24.686l-4.114 4.114c-32.914 26.743-69.943 55.543-115.2 67.886-76.114 22.629-141.943-16.457-201.6-53.486v514.286h623.314zM61.714-42.857v150.171c10.286 6.171 18.514 12.343 28.8 16.457 53.486 32.914 104.914 65.829 156.343 49.371 32.914-10.286 63.771-34.971 92.571-57.6l4.114-4.114c14.4-12.343 32.914-28.8 55.543-34.971 20.571-8.229 39.086-10.286 55.543-10.286 67.886 0 119.314 45.257 162.514 84.343 18.514 16.457 34.971 30.857 51.429 41.143 6.171 4.114 10.286 6.171 14.4 10.286v-244.8h-621.257zM746.743 413.829v211.886c24.686 8.229 47.314 10.286 69.943 4.114 34.971-10.286 65.829-34.971 94.629-59.657l6.171-4.114c14.4-12.343 30.857-26.743 53.486-32.914 20.571-8.229 39.086-10.286 55.543-10.286 65.829 0 119.314 45.257 162.514 84.343 18.514 16.457 34.971 30.857 53.486 43.2 2.057 2.057 8.229 4.114 14.4 8.229v-242.743h-510.171zM1028.571 808.8c63.771 0 117.257 51.429 117.257 117.257s-53.486 115.2-117.257 115.2-117.257-51.429-117.257-117.257 53.486-115.2 117.257-115.2zM1028.571 979.543c30.857 0 55.543-24.686 55.543-55.543s-24.686-55.543-55.543-55.543-55.543 24.686-55.543 55.543 24.686 55.543 55.543 55.543z" />
<glyph unicode="&#xeb70;" glyph-name="redirection" data-tags="redirection" horiz-adv-x="1317" d="M1304.229 245.143l-181.029 185.143c-12.343 12.343-30.857 12.343-43.2 0s-12.343-30.857 0-43.2l152.229-156.343h-255.086l-248.914 312.686 248.914 310.629h232.457l-131.657-135.771c-12.343-12.343-12.343-30.857 0-43.2 6.171-6.171 14.4-8.229 20.571-8.229 8.229 0 16.457 4.114 22.629 10.286l181.029 187.2c16.457 18.514 16.457 47.314 0 65.829l-181.029 187.2c-12.343 12.343-30.857 12.343-43.2 0s-12.343-30.857 0-43.2l150.171-154.286h-265.371c-10.286 0-18.514-4.114-24.686-12.343l-248.914-314.743-248.914 312.686c-6.171 8.229-14.4 12.343-24.686 12.343h-384.686c-16.457-2.057-30.857-14.4-30.857-32.914s14.4-30.857 30.857-30.857h370.286l248.914-310.629-248.914-310.629h-370.286c-16.457 0-30.857-14.4-30.857-30.857s14.4-30.857 30.857-30.857h384.686c10.286 0 18.514 4.114 24.686 12.343l248.914 312.686 248.914-312.686c6.171-8.229 14.4-12.343 24.686-12.343h246.857l-129.6-133.714c-12.343-12.343-12.343-30.857 0-43.2 6.171-6.171 14.4-8.229 20.571-8.229 8.229 0 16.457 4.114 22.629 10.286l181.029 187.2c16.457 14.4 16.457 43.2 0 61.714z" />
<glyph unicode="&#xeb73;" glyph-name="video" data-tags="video" horiz-adv-x="1317" d="M1162.286 1212h-1008c-84.343 0-154.286-69.943-154.286-154.286v-1005.943c0-86.4 69.943-156.343 154.286-156.343h1005.943c84.343 0 154.286 69.943 154.286 154.286v1008c2.057 84.343-67.886 154.286-152.229 154.286zM308.571 584.571h-246.857v257.143h246.857v-257.143zM61.714 522.857h246.857v-257.143h-246.857v257.143zM370.286 1150.286h576v-1193.143h-576v1193.143zM1254.857 584.571h-246.857v257.143h246.857v-257.143zM1008 522.857h246.857v-257.143h-246.857v257.143zM1254.857 1057.714v-154.286h-246.857v246.857h154.286c51.429 0 92.571-41.143 92.571-92.571zM154.286 1150.286h154.286v-246.857h-246.857v154.286c0 51.429 41.143 92.571 92.571 92.571zM61.714 49.714v154.286h246.857v-246.857h-154.286c-51.429 0-92.571 41.143-92.571 92.571zM1162.286-42.857h-154.286v246.857h246.857v-154.286c0-51.429-41.143-92.571-92.571-92.571zM826.971 580.457l-306.514 187.2c-10.286 6.171-20.571 6.171-30.857 0s-16.457-16.457-16.457-26.743v-372.343c0-10.286 6.171-20.571 16.457-26.743 4.114-2.057 10.286-4.114 14.4-4.114 6.171 0 10.286 2.057 16.457 4.114l306.514 187.2c10.286 4.114 16.457 14.4 16.457 24.686s-6.171 20.571-16.457 26.743zM534.857 422.057v263.314l218.057-131.657-218.057-131.657z" />
<glyph unicode="&#xeb87;" glyph-name="analytics" data-tags="analytics" horiz-adv-x="1317" d="M1285.714-42.857h-189.257v752.914c0 16.457-14.4 30.857-30.857 30.857s-30.857-14.4-30.857-30.857v-752.914h-331.2v538.971c0 16.457-14.4 30.857-30.857 30.857s-30.857-14.4-30.857-30.857v-538.971h-316.8v327.086c0 16.457-14.4 30.857-30.857 30.857s-30.857-14.4-30.857-30.857v-327.086h-201.6v1224c0 16.457-14.4 30.857-30.857 30.857s-30.857-14.4-30.857-30.857v-1254.857c0-16.457 14.4-30.857 30.857-30.857h1254.857c16.457 0 30.857 14.4 30.857 30.857s-14.4 30.857-30.857 30.857zM294.171 397.371c59.657 0 106.971 47.314 106.971 106.971 0 10.286-2.057 18.514-4.114 26.743l203.657 127.543c18.514-16.457 45.257-28.8 72-28.8 59.657 0 106.971 47.314 106.971 106.971 0 10.286-2.057 20.571-6.171 30.857l207.771 90.514c20.571-24.686 49.371-41.143 84.343-41.143 59.657 0 106.971 47.314 106.971 106.971s-47.314 106.971-106.971 106.971-106.971-47.314-106.971-106.971v-8.229l-220.114-94.629c-18.514 14.4-41.143 24.686-65.829 24.686-59.657 0-106.971-47.314-106.971-106.971 0-8.229 2.057-18.514 4.114-26.743l-203.657-127.543c-18.514 16.457-43.2 26.743-69.943 26.743-59.657 0-106.971-47.314-106.971-106.971-2.057-59.657 45.257-106.971 104.914-106.971zM1065.6 973.371c24.686 0 45.257-20.571 45.257-45.257s-20.571-45.257-45.257-45.257-45.257 20.571-45.257 45.257 20.571 45.257 45.257 45.257zM672.686 784.114c24.686 0 45.257-20.571 45.257-45.257s-20.571-45.257-45.257-45.257c-24.686 0-45.257 20.571-45.257 45.257s20.571 45.257 45.257 45.257zM294.171 549.6c24.686 0 45.257-20.571 45.257-45.257s-20.571-45.257-45.257-45.257-45.257 20.571-45.257 45.257c0 24.686 20.571 45.257 45.257 45.257z" />
<glyph unicode="&#xeb97;" glyph-name="schema" data-tags="schema" horiz-adv-x="1317" d="M1285.714 1043.314h-1254.857c-16.457 0-30.857-14.4-30.857-30.857v-917.486c0-16.457 14.4-30.857 30.857-30.857h1254.857c16.457 0 30.857 14.4 30.857 30.857v917.486c0 16.457-14.4 30.857-30.857 30.857zM1254.857 981.6v-193.371h-1193.143v193.371h1193.143zM61.714 125.829v598.629h1193.143v-598.629h-1193.143zM742.629 880.8c0-23.859 19.341-43.2 43.2-43.2s43.2 19.341 43.2 43.2v0c0 23.859-19.341 43.2-43.2 43.2s-43.2-19.341-43.2-43.2v0M913.371 880.8c0-23.859 19.341-43.2 43.2-43.2s43.2 19.341 43.2 43.2v0c0 23.859-19.341 43.2-43.2 43.2s-43.2-19.341-43.2-43.2v0M1082.057 880.8c0-23.859 19.341-43.2 43.2-43.2s43.2 19.341 43.2 43.2v0c0 23.859-19.341 43.2-43.2 43.2s-43.2-19.341-43.2-43.2v0M829.029 494.057l-98.743 14.4-45.257 90.514c-4.114 10.286-14.4 16.457-26.743 16.457s-22.629-6.171-26.743-16.457l-45.257-90.514-98.743-14.4c-12.343-2.057-20.571-10.286-24.686-20.571s0-22.629 8.229-30.857l72-69.943-16.457-98.743c-2.057-12.343 2.057-22.629 12.343-30.857 6.171-4.114 12.343-6.171 18.514-6.171 4.114 0 10.286 2.057 14.4 4.114l86.4 45.257 88.457-47.314c10.286-6.171 22.629-4.114 32.914 2.057s14.4 18.514 12.343 30.857l-16.457 98.743 72 69.943c8.229 8.229 12.343 20.571 8.229 30.857-4.114 12.343-14.4 20.571-26.743 22.629zM720 403.543c-8.229-6.171-10.286-16.457-8.229-26.743l8.229-53.486-47.314 24.686c-8.229 4.114-20.571 4.114-28.8 0l-47.314-24.686 8.229 53.486c2.057 10.286-2.057 20.571-8.229 26.743l-39.086 37.029 53.486 8.229c10.286 2.057 18.514 8.229 22.629 16.457l24.686 49.371 24.686-49.371c4.114-8.229 12.343-16.457 22.629-16.457l53.486-8.229-39.086-37.029z" />
<glyph unicode="&#xeb99;" glyph-name="adsense" data-tags="adsense" horiz-adv-x="1317" d="M1285.714 1127.657h-1254.857c-16.457 0-30.857-14.4-30.857-30.857v-660.343c0-16.457 14.4-30.857 30.857-30.857h170.743v-394.971c0-16.457 14.4-30.857 30.857-30.857s30.857 14.4 30.857 30.857v394.971h364.114v-394.971c0-16.457 14.4-30.857 30.857-30.857s30.857 14.4 30.857 30.857v394.971h364.114v-394.971c0-16.457 14.4-30.857 30.857-30.857s30.857 14.4 30.857 30.857v394.971h170.743c16.457 0 30.857 14.4 30.857 30.857v660.343c0 16.457-14.4 30.857-30.857 30.857zM1254.857 467.314h-1193.143v598.629h1193.143v-598.629zM306.514 598.971c14.4-8.229 32.914-2.057 41.143 14.4l39.086 78.171h168.686l37.029-78.171c6.171-10.286 16.457-16.457 26.743-16.457 4.114 0 8.229 0 14.4 4.114 14.4 8.229 22.629 26.743 14.4 41.143l-150.171 308.571c-6.171 10.286-16.457 16.457-26.743 16.457s-22.629-6.171-26.743-16.457l-150.171-308.571c-10.286-16.457-4.114-34.971 12.343-43.2zM469.029 866.4l55.543-113.143h-109.029l53.486 113.143zM792 592.8h51.429c100.8 0 183.086 82.286 183.086 183.086v10.286c0 100.8-82.286 183.086-183.086 183.086h-51.429c-16.457 0-30.857-14.4-30.857-30.857v-316.8c0-16.457 14.4-28.8 30.857-28.8zM822.857 909.6h20.571c67.886 0 121.371-55.543 121.371-121.371v-10.286c0-67.886-55.543-121.371-121.371-121.371h-20.571v253.029z" />
<glyph unicode="&#xeb9d;" glyph-name="tick" data-tags="tick" horiz-adv-x="1317" d="M458.743 129.943c-20.571 0-43.2 8.229-59.657 24.686l-390.857 382.629c-12.343 12.343-12.343 30.857 0 43.2s30.857 12.343 43.2 0l390.857-382.629c8.229-8.229 22.629-8.229 30.857 0l789.943 771.429c12.343 12.343 30.857 12.343 43.2 0s12.343-30.857 0-43.2l-787.886-771.429c-16.457-16.457-37.029-24.686-59.657-24.686z" />
<glyph unicode="&#xeb9f;" glyph-name="circle-plus" data-tags="circle-plus" horiz-adv-x="1317" d="M886.629 586.629h-197.486v197.486c0 16.457-14.4 30.857-30.857 30.857s-30.857-14.4-30.857-30.857v-197.486h-197.486c-16.457 0-30.857-14.4-30.857-30.857s14.4-30.857 30.857-30.857h197.486v-197.486c0-16.457 14.4-30.857 30.857-30.857s30.857 14.4 30.857 30.857v197.486h197.486c16.457 0 30.857 14.4 30.857 30.857s-14.4 30.857-30.857 30.857zM658.286 1212c-362.057 0-658.286-296.229-658.286-658.286s296.229-658.286 658.286-658.286 658.286 296.229 658.286 658.286-296.229 658.286-658.286 658.286zM658.286-42.857c-329.143 0-596.571 267.429-596.571 596.571s267.429 596.571 596.571 596.571 596.571-267.429 596.571-596.571-267.429-596.571-596.571-596.571z" />
<glyph unicode="&#xeba4;" glyph-name="eye" data-tags="eye" horiz-adv-x="1317" d="M658.286 407.657c-80.229 0-144 65.829-144 146.057s65.829 146.057 144 146.057c80.229 0 144-65.829 144-146.057s-63.771-146.057-144-146.057zM658.286 638.057c-45.257 0-82.286-37.029-82.286-84.343s37.029-84.343 82.286-84.343 82.286 37.029 82.286 84.343-37.029 84.343-82.286 84.343zM658.286 177.257c-267.429 0-510.171 133.714-652.114 355.886-8.229 12.343-8.229 28.8 0 43.2 141.943 222.171 384.686 353.829 652.114 353.829s510.171-133.714 652.114-355.886c8.229-12.343 8.229-28.8 0-43.2-141.943-220.114-384.686-353.829-652.114-353.829zM65.829 553.714c131.657-197.486 351.771-314.743 592.457-314.743s460.8 117.257 592.457 314.743c-131.657 197.486-351.771 314.743-592.457 314.743s-460.8-117.257-592.457-314.743z" />
<glyph unicode="&#xebac;" glyph-name="heart-filled" data-tags="heart-filled" horiz-adv-x="1317" d="M1215.771 1028.914c-133.714 133.714-353.829 133.714-487.543 0l-72-72-72 72c-67.886 65.829-154.286 98.743-242.743 98.743s-174.857-30.857-240.686-98.743c-133.714-133.714-133.714-355.886 0-489.6l557.486-561.6 557.486 563.657c67.886 67.886 100.8 154.286 100.8 242.743s-34.971 178.971-100.8 244.8z" />
<glyph unicode="&#xebb4;" glyph-name="info" data-tags="info" horiz-adv-x="1317" d="M826.971-42.857h-137.829v975.086c0 47.314-39.086 86.4-86.4 86.4h-111.086c-16.457 0-30.857-14.4-30.857-30.857s14.4-30.857 30.857-30.857h111.086c14.4 0 24.686-10.286 24.686-24.686v-975.086h-137.829c-16.457 0-30.857-14.4-30.857-30.857s14.4-30.857 30.857-30.857h335.314c16.457 0 30.857 14.4 30.857 30.857s-12.343 30.857-28.8 30.857zM602.743 1156.457c0-30.675 24.867-55.543 55.543-55.543s55.543 24.867 55.543 55.543v0c0 30.675-24.867 55.543-55.543 55.543s-55.543-24.867-55.543-55.543v0" />
<glyph unicode="&#xebbc;" glyph-name="howto" data-tags="howto" horiz-adv-x="1317" d="M306.514 1059.771h-275.657c-16.457 0-30.857-14.4-30.857-30.857v-275.657c0-16.457 14.4-30.857 30.857-30.857h275.657c16.457 0 30.857 14.4 30.857 30.857v275.657c0 16.457-12.343 30.857-30.857 30.857zM275.657 782.057h-213.943v216h213.943v-216zM306.514 387.086h-275.657c-16.457 0-30.857-14.4-30.857-30.857v-275.657c0-16.457 14.4-30.857 30.857-30.857h275.657c16.457 0 30.857 14.4 30.857 30.857v275.657c0 16.457-12.343 30.857-30.857 30.857zM275.657 109.371h-213.943v216h213.943v-216zM584.229 954.857h701.486c16.457 0 30.857 14.4 30.857 30.857s-14.4 30.857-30.857 30.857h-701.486c-16.457 0-30.857-14.4-30.857-30.857s14.4-30.857 30.857-30.857zM1285.714 825.257h-701.486c-16.457 0-30.857-14.4-30.857-30.857s14.4-30.857 30.857-30.857h701.486c16.457 0 30.857 14.4 30.857 30.857s-14.4 30.857-30.857 30.857zM1285.714 343.886h-701.486c-16.457 0-30.857-14.4-30.857-30.857s14.4-30.857 30.857-30.857h701.486c16.457 0 30.857 14.4 30.857 30.857s-14.4 30.857-30.857 30.857zM1285.714 152.571h-701.486c-16.457 0-30.857-14.4-30.857-30.857s14.4-30.857 30.857-30.857h701.486c16.457 0 30.857 14.4 30.857 30.857s-14.4 30.857-30.857 30.857z" />
<glyph unicode="&#xebbd;" glyph-name="faq" data-tags="faq" horiz-adv-x="1317" d="M240.686 1172.914h-189.257c-26.743 0-51.429-24.686-51.429-51.429v-189.257c0-28.8 22.629-51.429 51.429-51.429h189.257c28.8 0 51.429 22.629 51.429 51.429v189.257c0 26.743-22.629 51.429-51.429 51.429zM230.4 940.457h-168.686v170.743h168.686v-170.743zM518.4 993.943h767.314c16.457 0 30.857 14.4 30.857 30.857s-14.4 30.857-30.857 30.857h-767.314c-16.457 0-30.857-14.4-30.857-30.857s12.343-30.857 30.857-30.857zM240.686 712.114h-189.257c-28.8 0-51.429-22.629-51.429-51.429v-189.257c0-28.8 22.629-51.429 51.429-51.429h189.257c28.8 0 51.429 22.629 51.429 51.429v189.257c0 28.8-22.629 51.429-51.429 51.429zM230.4 481.714h-168.686v168.686h168.686v-168.686zM1285.714 596.914h-767.314c-16.457 0-30.857-14.4-30.857-30.857s14.4-30.857 30.857-30.857h767.314c16.457 0 30.857 14.4 30.857 30.857s-14.4 30.857-30.857 30.857zM240.686 228.686h-189.257c-28.8 0-51.429-22.629-51.429-51.429v-189.257c0-28.8 22.629-51.429 51.429-51.429h189.257c28.8 0 51.429 22.629 51.429 51.429v189.257c0 28.8-22.629 51.429-51.429 51.429zM230.4-3.771h-168.686v168.686h168.686v-168.686zM1285.714 113.486h-767.314c-16.457 0-30.857-14.4-30.857-30.857s14.4-30.857 30.857-30.857h767.314c16.457 0 30.857 14.4 30.857 30.857s-14.4 30.857-30.857 30.857z" />
<glyph unicode="&#xebc8;" glyph-name="music" data-tags="music" horiz-adv-x="1317" d="M1283.657 1070.057c-20.571 18.514-47.314 28.8-76.114 26.743l-771.429-59.657c-51.429-4.114-92.571-47.314-92.571-100.8v-676.8c-37.029 24.686-84.343 39.086-139.886 39.086-113.143 0-201.6-63.771-201.6-146.057s88.457-146.057 201.6-146.057c113.143 0 201.6 63.771 201.6 146.057v514.286l849.6 65.829v-415.543c-37.029 24.686-84.343 39.086-139.886 39.086-113.143 0-201.6-63.771-201.6-146.057s88.457-146.057 201.6-146.057 201.6 63.771 201.6 146.057v785.829c0 28.8-12.343 55.543-32.914 74.057zM201.6 72.343c-76.114 0-139.886 39.086-139.886 84.343s63.771 84.343 139.886 84.343 139.886-39.086 139.886-84.343-63.771-84.343-139.886-84.343zM1114.971 129.943c-76.114 0-139.886 39.086-139.886 84.343s63.771 84.343 139.886 84.343 139.886-39.086 139.886-84.343-63.771-84.343-139.886-84.343zM403.2 936.343c0 20.571 16.457 37.029 34.971 39.086l777.6 59.657c10.286 0 18.514-4.114 26.743-10.286 8.229-8.229 12.343-18.514 12.343-28.8v-201.6l-851.657-65.829v207.771z" />
<glyph unicode="&#xebce;" glyph-name="plus" data-tags="plus" horiz-adv-x="1317" d="M1285.714 584.571h-596.571v596.571c0 16.457-14.4 30.857-30.857 30.857s-30.857-14.4-30.857-30.857v-596.571h-596.571c-16.457 0-30.857-14.4-30.857-30.857s14.4-30.857 30.857-30.857h596.571v-596.571c0-16.457 14.4-30.857 30.857-30.857s30.857 14.4 30.857 30.857v596.571h596.571c16.457 0 30.857 14.4 30.857 30.857s-14.4 30.857-30.857 30.857z" />
<glyph unicode="&#xebd2;" glyph-name="help" data-tags="help" horiz-adv-x="1317" d="M658.286 1212c-362.057 0-658.286-296.229-658.286-658.286s296.229-658.286 658.286-658.286 658.286 296.229 658.286 658.286-296.229 658.286-658.286 658.286zM658.286-42.857c-329.143 0-596.571 267.429-596.571 596.571s267.429 596.571 596.571 596.571 596.571-267.429 596.571-596.571-267.429-596.571-596.571-596.571zM695.314 981.6c-59.657 10.286-121.371-6.171-166.629-43.2-45.257-39.086-72-94.629-72-154.286 0-22.629 4.114-45.257 12.343-67.886 6.171-16.457 22.629-24.686 39.086-18.514s24.686 22.629 18.514 39.086c-6.171 14.4-8.229 30.857-8.229 47.314 0 41.143 18.514 80.229 49.371 106.971 32.914 26.743 74.057 37.029 115.2 30.857 55.543-10.286 102.857-55.543 113.143-113.143 12.343-65.829-22.629-129.6-84.343-156.343-51.429-20.571-84.343-72-84.343-131.657v-137.829c0-16.457 14.4-30.857 30.857-30.857s30.857 14.4 30.857 30.857v137.829c0 32.914 18.514 63.771 45.257 74.057 88.457 37.029 137.829 127.543 121.371 222.171-12.343 82.286-80.229 150.171-160.457 164.571zM658.286 267.771c-30.857 0-57.6-24.686-57.6-57.6 0-30.857 24.686-57.6 57.6-57.6 30.857 0 57.6 24.686 57.6 57.6s-26.743 57.6-57.6 57.6z" />
<glyph unicode="&#xebe1;" glyph-name="instant-indexing" data-tags="instant-indexing" horiz-adv-x="1317" d="M1059.429 661.086c-14.4 20.571-37.029 28.8-59.657 22.629l-203.657-51.429 67.886 501.943c4.114 26.743-10.286 49.371-34.971 59.657s-51.429 2.057-67.886-18.514l-501.943-699.429c-14.4-18.514-14.4-43.2-2.057-63.771s34.971-28.8 57.6-24.686l195.429 39.086-57.6-481.371c-2.057-26.743 10.286-49.371 34.971-59.657 6.171-2.057 14.4-4.114 20.571-4.114 18.514 0 34.971 8.229 45.257 22.629l501.943 691.2c16.457 20.571 16.457 45.257 4.114 65.829zM516.343-42.457l55.543 469.029c2.057 18.514-4.114 34.971-18.514 47.314-10.286 10.286-24.686 14.4-39.086 14.4-4.114 0-8.229 0-10.286-2.057l-189.257-37.029 485.486 672.686-65.829-487.543c-2.057-18.514 4.114-37.029 18.514-49.371s32.914-16.457 51.429-12.343l197.486 49.371-485.486-664.457z" />
<glyph unicode="&#xebe8;" glyph-name="404" data-tags="404" horiz-adv-x="1317" d="M1310.4 144.343l-627.429 855.771c-12.343 16.457-39.086 16.457-49.371 0l-627.429-855.771c-6.171-10.286-8.229-22.629-2.057-32.914s16.457-16.457 26.743-16.457h1254.857c12.343 0 22.629 6.171 26.743 16.457 6.171 10.286 4.114 22.629-2.057 32.914zM92.571 156.686l565.714 773.486 565.714-771.429h-1131.429zM627.429 695.657v-228.343c0-16.457 14.4-30.857 30.857-30.857s30.857 14.4 30.857 30.857v228.343c0 16.457-14.4 30.857-30.857 30.857s-30.857-12.343-30.857-30.857zM617.143 296.571c0-22.723 18.42-41.143 41.143-41.143s41.143 18.42 41.143 41.143v0c0 22.723-18.42 41.143-41.143 41.143s-41.143-18.42-41.143-41.143v0" />
<glyph unicode="&#xebea;" glyph-name="cross" data-tags="cross" horiz-adv-x="1317" d="M701.486 553.714l606.857 604.8c12.343 12.343 12.343 30.857 0 43.2s-30.857 12.343-43.2 0l-606.857-604.8-604.8 606.857c-12.343 10.286-32.914 10.286-45.257 0-10.286-12.343-10.286-32.914 0-45.257l606.857-604.8-606.857-604.8c-12.343-12.343-12.343-30.857 0-43.2 6.171-8.229 14.4-10.286 22.629-10.286s16.457 2.057 22.629 8.229l604.8 606.857 604.8-604.8c6.171-6.171 14.4-8.229 22.629-8.229s16.457 2.057 22.629 8.229c12.343 12.343 12.343 30.857 0 43.2l-606.857 604.8z" />
<glyph unicode="&#xec3b;" glyph-name="recipe" data-tags="recipe" horiz-adv-x="1317" d="M1059.429 913.714c-39.086 0-78.171-10.286-113.143-26.743-6.171 156.343-133.714 281.829-290.057 281.829s-283.886-123.429-290.057-279.771c-32.914 16.457-69.943 24.686-106.971 24.686-144 0-259.2-115.2-259.2-259.2 0-131.657 98.743-240.686 226.286-257.143v-429.943c0-8.229 4.114-18.514 10.286-22.629 6.171-6.171 16.457-8.229 24.686-6.171l185.143 28.8c139.886 22.629 283.886 22.629 423.771 0l185.143-28.8h4.114c8.229 0 14.4 2.057 20.571 8.229s10.286 14.4 10.286 22.629v427.886c127.543 14.4 226.286 125.486 226.286 257.143 0 144-115.2 259.2-257.143 259.2zM880.457 29.143c-148.114 22.629-296.229 22.629-444.343 0l-148.114-24.686v127.543l158.4 24.686c139.886 22.629 283.886 22.629 423.771 0l158.4-24.686v-127.543l-148.114 24.686zM1059.429 459.086c-16.457 0-30.857-14.4-30.857-30.857v-232.457l-148.114 22.629c-6.171 0-10.286 2.057-16.457 2.057v176.914c0 16.457-14.4 30.857-30.857 30.857s-30.857-14.4-30.857-30.857v-168.686c-96.686 10.286-193.371 10.286-290.057 0v168.686c0 16.457-14.4 30.857-30.857 30.857s-28.8-14.4-28.8-30.857v-176.914c-6.171 0-10.286-2.057-16.457-2.057l-148.114-24.686v234.514c0 16.457-14.4 30.857-30.857 30.857-106.971 0-195.429 88.457-195.429 197.486s88.457 197.486 195.429 197.486c45.257 0 86.4-14.4 123.429-43.2 10.286-8.229 24.686-8.229 34.971-2.057s16.457 18.514 14.4 32.914c-2.057 12.343-4.114 24.686-4.114 39.086 0 127.543 102.857 232.457 228.343 232.457s228.343-102.857 228.343-232.457c0-14.4-2.057-30.857-4.114-43.2s4.114-26.743 14.4-32.914c12.343-6.171 26.743-4.114 34.971 4.114 34.971 30.857 82.286 49.371 129.6 49.371 106.971 0 195.429-88.457 195.429-197.486 2.057-113.143-86.4-201.6-193.371-201.6z" />
<glyph unicode="&#xec56;" glyph-name="restaurant" data-tags="restaurant" horiz-adv-x="1317" d="M1254.857 849.943l-195.429 345.6c-6.171 10.286-16.457 16.457-26.743 16.457h-750.857c-10.286 0-20.571-6.171-26.743-16.457l-193.371-345.6c-2.057-4.114-4.114-10.286-4.114-14.4v-909.257c0-16.457 14.4-30.857 30.857-30.857h1139.657c16.457 0 30.857 14.4 30.857 30.857v909.257c0 6.171-2.057 10.286-4.114 14.4zM341.486 806.743c-2.057-59.657-51.429-109.029-111.086-109.029s-109.029 49.371-111.086 109.029h222.171zM911.314 806.743c-2.057-59.657-51.429-109.029-111.086-109.029s-109.029 49.371-111.086 109.029h222.171zM1197.257 806.743c-2.057-59.657-51.429-109.029-111.086-109.029s-109.029 49.371-111.086 109.029h222.171zM300.343 1150.286h713.829l158.4-281.829h-1030.629l158.4 281.829zM627.429 806.743c-2.057-59.657-51.429-109.029-111.086-109.029s-109.029 49.371-111.086 109.029h222.171zM347.657-42.857v394.971h166.629v-394.971h-166.629zM576-42.857v425.829c0 16.457-14.4 30.857-30.857 30.857h-228.343c-16.457 0-30.857-14.4-30.857-30.857v-425.829h-166.629v720c30.857-24.686 67.886-41.143 111.086-41.143 59.657 0 111.086 30.857 141.943 76.114 30.857-45.257 84.343-76.114 141.943-76.114 59.657 0 111.086 28.8 141.943 74.057 30.857-45.257 82.286-74.057 141.943-74.057s111.086 30.857 141.943 76.114c30.857-45.257 84.343-76.114 141.943-76.114 43.2 0 80.229 14.4 111.086 41.143v-720h-617.143zM1001.829 413.829h-170.743c-16.457 0-30.857-14.4-30.857-30.857v-170.743c0-16.457 14.4-30.857 30.857-30.857h170.743c16.457 0 30.857 14.4 30.857 30.857v170.743c0 16.457-14.4 30.857-30.857 30.857zM970.971 243.086h-109.029v109.029h109.029v-109.029z" />
<glyph unicode="&#xec64;" glyph-name="post-format" data-tags="post-format" horiz-adv-x="1317" d="M1156.114 967.2l-275.657 236.571c-6.171 4.114-12.343 8.229-20.571 8.229h-678.857c-18.514 0-32.914-14.4-32.914-30.857v-1254.857c0-16.457 14.4-30.857 30.857-30.857h481.371c16.457 0 30.857 14.4 30.857 30.857s-12.343 30.857-28.8 30.857h-452.571v1193.143h637.714l257.143-220.114v-973.029h-26.743c-16.457 0-30.857-14.4-30.857-30.857s14.4-30.857 30.857-30.857h57.6c16.457 0 30.857 14.4 30.857 30.857v1018.286c2.057 8.229-2.057 16.457-10.286 22.629zM382.629 921.943h298.286c16.457 0 30.857 14.4 30.857 30.857s-14.4 30.857-30.857 30.857h-298.286c-16.457 0-30.857-14.4-30.857-30.857s14.4-30.857 30.857-30.857zM382.629 730.629h510.171c16.457 0 30.857 14.4 30.857 30.857s-14.4 30.857-30.857 30.857h-510.171c-16.457 0-30.857-14.4-30.857-30.857s14.4-30.857 30.857-30.857zM382.629 516.686h510.171c16.457 0 30.857 14.4 30.857 30.857s-14.4 30.857-30.857 30.857h-510.171c-16.457 0-30.857-14.4-30.857-30.857s14.4-30.857 30.857-30.857zM866.057 403.543c-76.114 0-137.829-61.714-137.829-137.829 0-32.914 12.343-63.771 32.914-88.457v-253.029c0-10.286 6.171-20.571 14.4-26.743 10.286-6.171 20.571-6.171 30.857 0l59.657 32.914 59.657-32.914c4.114-2.057 10.286-4.114 14.4-4.114 6.171 0 10.286 2.057 16.457 4.114 10.286 6.171 14.4 16.457 14.4 26.743v255.086c20.571 24.686 30.857 53.486 30.857 88.457 0 74.057-59.657 135.771-135.771 135.771zM866.057 341.829c41.143 0 76.114-32.914 76.114-76.114 0-41.143-32.914-76.114-76.114-76.114s-76.114 34.971-76.114 76.114c0 43.2 34.971 76.114 76.114 76.114zM880.457-3.771c-10.286 6.171-20.571 6.171-30.857 0l-26.743-16.457v156.343c14.4-4.114 28.8-8.229 43.2-8.229s30.857 2.057 43.2 8.229v-156.343l-28.8 16.457z" />
<glyph unicode="&#xec66;" glyph-name="service" data-tags="service" horiz-adv-x="1317" d="M1285.714 1107.086h-1254.857c-16.457 0-30.857-14.4-30.857-30.857v-680.914c0-16.457 14.4-30.857 30.857-30.857h119.314c18.514-61.714 78.171-106.971 146.057-106.971s127.543 45.257 146.057 106.971h429.943c18.514-61.714 78.171-106.971 146.057-106.971 69.943 0 127.543 45.257 146.057 106.971h119.314c16.457 0 30.857 14.4 30.857 30.857v680.914c2.057 16.457-12.343 30.857-28.8 30.857zM296.229 319.2c-49.371 0-90.514 39.086-90.514 88.457s41.143 88.457 90.514 88.457 90.514-39.086 90.514-88.457-39.086-88.457-90.514-88.457zM1020.343 319.2c-49.371 0-90.514 39.086-90.514 88.457s41.143 88.457 90.514 88.457 90.514-39.086 90.514-88.457-41.143-88.457-90.514-88.457zM1254.857 426.171h-82.286c-10.286 74.057-74.057 129.6-152.229 129.6s-141.943-57.6-152.229-129.6h-419.657c-10.286 74.057-74.057 129.6-152.229 129.6s-141.943-57.6-152.229-129.6h-82.286v619.2h1193.143v-619.2zM296.229 208.114c-119.314 0-230.4-61.714-292.114-160.457-8.229-14.4-4.114-32.914 10.286-43.2 4.114-4.114 10.286-4.114 16.457-4.114 10.286 0 20.571 6.171 26.743 14.4 49.371 82.286 141.943 131.657 238.629 131.657 98.743 0 189.257-49.371 238.629-131.657 8.229-14.4 28.8-18.514 43.2-10.286s18.514 28.8 10.286 43.2c-61.714 100.8-170.743 160.457-292.114 160.457zM1020.343 208.114c-119.314 0-230.4-61.714-292.114-160.457-8.229-14.4-4.114-32.914 10.286-43.2 14.4-8.229 32.914-4.114 43.2 10.286 49.371 82.286 141.943 131.657 238.629 131.657 98.743 0 189.257-49.371 238.629-131.657 6.171-10.286 16.457-14.4 26.743-14.4 6.171 0 10.286 2.057 16.457 4.114 14.4 8.229 18.514 28.8 10.286 43.2-63.771 100.8-172.8 160.457-292.114 160.457z" />
<glyph unicode="&#xec70;" glyph-name="course" data-tags="course" horiz-adv-x="1317" d="M1296 839.657l-625.371 226.286c-6.171 2.057-14.4 2.057-20.571 0l-629.486-226.286c-12.343-4.114-20.571-16.457-20.571-28.8s8.229-24.686 20.571-28.8l178.971-63.771v-403.2c0-12.343 8.229-24.686 20.571-28.8 185.143-61.714 325.029-88.457 452.571-88.457 67.886 0 131.657 8.229 197.486 20.571v-24.686c-41.143-12.343-72-51.429-72-96.686 0-55.543 45.257-102.857 102.857-102.857s102.857 45.257 102.857 102.857c0 45.257-30.857 84.343-72 96.686v39.086c53.486 14.4 106.971 32.914 166.629 53.486 12.343 4.114 20.571 16.457 20.571 28.8v403.2l176.914 63.771c12.343 4.114 20.571 16.457 20.571 28.8s-10.286 24.686-20.571 28.8zM901.029 53.829c-22.629 0-41.143 18.514-41.143 41.143s18.514 41.143 41.143 41.143 41.143-18.514 41.143-41.143-18.514-41.143-41.143-41.143zM261.257 337.714v357.943l386.743-139.886c4.114-2.057 6.171-2.057 10.286-2.057s6.171 0 10.286 2.057l201.6 72v-347.657c-178.971-39.086-347.657-28.8-608.914 57.6zM1055.314 335.657c-43.2-14.4-84.343-28.8-125.486-39.086v353.829l125.486 45.257v-360zM907.2 708l-164.571 61.714c-16.457 6.171-32.914-2.057-39.086-18.514s2.057-32.914 18.514-39.086l96.686-34.971-160.457-59.657-534.857 193.371 534.857 193.371 534.857-193.371-285.943-102.857z" />
<glyph unicode="&#xec73;" glyph-name="book" data-tags="book" horiz-adv-x="1317" d="M1256.914 1041.257h-528.686c-28.8 0-53.486-10.286-69.943-28.8-18.514 18.514-43.2 28.8-69.943 28.8h-528.686c-32.914 0-59.657-26.743-59.657-59.657v-798.171c0-32.914 26.743-59.657 59.657-59.657h567.771v-26.743c0-16.457 14.4-30.857 30.857-30.857s30.857 14.4 30.857 30.857v26.743h567.771c32.914 0 59.657 26.743 59.657 59.657v798.171c0 32.914-26.743 59.657-59.657 59.657zM61.714 185.486v794.057h526.629c22.629 0 39.086-16.457 39.086-41.143v-752.914h-565.714zM1254.857 185.486h-565.714v752.914c0 22.629 16.457 41.143 39.086 41.143h526.629v-794.057zM429.943 812.914h-228.343c-16.457 0-30.857-14.4-30.857-30.857s14.4-30.857 30.857-30.857h228.343c16.457 0 30.857 14.4 30.857 30.857s-14.4 30.857-30.857 30.857zM886.629 751.2h228.343c16.457 0 30.857 14.4 30.857 30.857s-14.4 30.857-30.857 30.857h-228.343c-16.457 0-30.857-14.4-30.857-30.857s14.4-30.857 30.857-30.857zM886.629 580.457h228.343c16.457 0 30.857 14.4 30.857 30.857s-14.4 30.857-30.857 30.857h-228.343c-16.457 0-30.857-14.4-30.857-30.857s14.4-30.857 30.857-30.857zM429.943 642.171h-228.343c-16.457 0-30.857-14.4-30.857-30.857s14.4-30.857 30.857-30.857h228.343c16.457 0 30.857 14.4 30.857 30.857s-14.4 30.857-30.857 30.857zM429.943 471.429h-228.343c-16.457 0-30.857-14.4-30.857-30.857 0-18.514 14.4-30.857 30.857-30.857h228.343c16.457 0 30.857 14.4 30.857 30.857s-14.4 30.857-30.857 30.857zM886.629 409.714h228.343c16.457 0 30.857 14.4 30.857 30.857s-14.4 30.857-30.857 30.857h-228.343c-16.457 0-30.857-14.4-30.857-30.857 0-18.514 14.4-30.857 30.857-30.857z" />
<glyph unicode="&#xec76;" glyph-name="social" data-tags="social" horiz-adv-x="1317" d="M1265.143 1070.057c-59.657 49.371-150.171 41.143-201.6-18.514-24.686-28.8-34.971-65.829-32.914-104.914 2.057-12.343 4.114-22.629 8.229-34.971l-226.286-131.657c-39.086 67.886-111.086 113.143-193.371 113.143-65.829 0-123.429-28.8-164.571-74.057l-193.371 174.857c14.4 22.629 22.629 47.314 22.629 76.114 0 78.171-63.771 141.943-141.943 141.943s-141.943-63.771-141.943-141.943 63.771-141.943 141.943-141.943c28.8 0 55.543 8.229 78.171 22.629l201.6-183.086c-14.4-28.8-22.629-61.714-22.629-96.686 0-123.429 98.743-222.171 222.171-222.171 8.229 0 16.457 0 24.686 2.057l53.486-195.429c-61.714-30.857-102.857-94.629-102.857-168.686 0-104.914 86.4-191.314 191.314-191.314s191.314 86.4 191.314 191.314-86.4 191.314-191.314 191.314c-10.286 0-18.514 0-28.8-2.057l-51.429 191.314c80.229 32.914 137.829 113.143 137.829 205.714 0 18.514-2.057 34.971-6.171 51.429l236.571 137.829 10.286-10.286c26.743-20.571 57.6-32.914 90.514-32.914h14.4c37.029 4.114 72 22.629 96.686 51.429 45.257 59.657 37.029 150.171-22.629 199.543zM141.943 987.771c-43.2 0-80.229 37.029-80.229 82.286s37.029 80.229 80.229 80.229 80.229-37.029 80.229-80.229-34.971-82.286-80.229-82.286zM915.429 86.743c0-69.943-57.6-129.6-129.6-129.6s-129.6 57.6-129.6 129.6c0 69.943 57.6 129.6 129.6 129.6s129.6-59.657 129.6-129.6zM621.257 510.514c-88.457 0-160.457 72-160.457 160.457s72 160.457 160.457 160.457 160.457-72 160.457-160.457-72-160.457-160.457-160.457zM1236.343 909.6c-14.4-16.457-32.914-26.743-55.543-28.8-20.571-2.057-43.2 4.114-59.657 18.514s-26.743 32.914-28.8 55.543c-2.057 20.571 4.114 43.2 18.514 59.657 16.457 18.514 39.086 28.8 61.714 28.8 18.514 0 37.029-6.171 51.429-18.514 34.971-30.857 41.143-82.286 12.343-115.2z" />
<glyph unicode="&#xec78;" glyph-name="edit" data-tags="edit" horiz-adv-x="1317" d="M1314.514 1004.229c0 12.343-4.114 24.686-14.4 34.971-26.743 26.743-53.486 53.486-78.171 80.229-24.686 24.686-49.371 47.314-74.057 72-8.229 10.286-18.514 16.457-30.857 18.514-14.4 2.057-26.743-2.057-39.086-10.286l-156.343-156.343h-872.229c-26.743 0-49.371-22.629-49.371-49.371v-1051.2c0-26.743 22.629-49.371 49.371-49.371h1051.2c26.743 0 49.371 22.629 49.371 49.371v876.343l152.229 152.229c8.229 8.229 12.343 20.571 12.343 32.914zM685.029 444.686l-205.714-67.886 67.886 205.714 421.714 421.714 139.886-137.829-423.771-421.714zM1088.229-42.857h-1024.457v1024.457h796.114l-366.171-366.171-88.457-271.543c-4.114-10.286-2.057-22.629 4.114-30.857 4.114-6.171 12.343-14.4 28.8-14.4h4.114l275.657 90.514 368.229 368.229v-800.229zM1152 909.6l-139.886 137.829 98.743 96.686 67.886-67.886c22.629-22.629 45.257-47.314 69.943-69.943l-96.686-96.686z" />
<glyph unicode="&#xec86;" glyph-name="page" data-tags="page" horiz-adv-x="1317" d="M1158.171 1053.6h-4.114c-22.629 0-43.2 0-65.829 2.057v102.857c0 30.857-22.629 53.486-53.486 53.486h-868.114c-30.857 0-53.486-22.629-53.486-53.486v-812.571c0-8.229 4.114-16.457 8.229-22.629l22.629-20.571 8.229-8.229 392.914-390.857c6.171-6.171 14.4-8.229 22.629-8.229h469.029c30.857 0 53.486 22.629 53.486 51.429v88.457l111.086 224.229c2.057 4.114 4.114 8.229 4.114 14.4l2.057 734.4c-4.114 24.686-24.686 45.257-49.371 45.257zM512.229 20.914l-273.6 273.6h273.6v-273.6zM1026.514-42.857h-452.571v353.829c0 24.686-20.571 45.257-45.257 45.257h-353.829v794.057h851.657v-94.629h-65.829c-26.743 0-49.371-20.571-49.371-45.257l-2.057-736.457c0-4.114 2.057-10.286 4.114-14.4l113.143-224.229v-78.171zM1141.714 280.114l-84.343-168.686-84.343 168.686v528.686h168.686v-528.686zM1141.714 870.514h-168.686v123.429c55.543 0 111.086 0 168.686-2.057v-121.371z" />
<glyph unicode="&#xecbe;" glyph-name="arrow-up" data-tags="arrow-up" horiz-adv-x="1317" d="M905.143 1033.029l-187.2 158.4c-34.971 28.8-86.4 28.8-121.371 0l-185.143-158.4c-12.343-10.286-14.4-30.857-4.114-43.2s30.857-14.4 43.2-4.114l176.914 148.114v-1207.543c0-16.457 14.4-30.857 30.857-30.857s30.857 14.4 30.857 30.857v1207.543l176.914-148.114c6.171-4.114 12.343-8.229 20.571-8.229s18.514 4.114 22.629 10.286c12.343 14.4 10.286 34.971-4.114 45.257z" />
<glyph unicode="&#xecbf;" glyph-name="caret-down" data-tags="caret-down" horiz-adv-x="1317" d="M1308.343 862.286c-12.343 12.343-30.857 12.343-43.2 2.057l-592.457-561.6c-8.229-8.229-20.571-8.229-28.8 0l-592.457 561.6c-12.343 10.286-30.857 10.286-43.2-2.057s-10.286-32.914 2.057-43.2l592.457-561.6c16.457-14.4 37.029-22.629 57.6-22.629s41.143 8.229 57.6 22.629l592.457 561.6c8.229 10.286 10.286 30.857-2.057 43.2z" />
<glyph unicode="&#xecc6;" glyph-name="arrow-down" data-tags="arrow-down" horiz-adv-x="1317" d="M909.257 117.6c-10.286 12.343-30.857 14.4-43.2 4.114l-176.914-148.114v1207.543c0 16.457-14.4 30.857-30.857 30.857s-30.857-14.4-30.857-30.857v-1207.543l-176.914 148.114c-12.343 10.286-32.914 10.286-43.2-4.114-10.286-12.343-10.286-32.914 4.114-43.2l187.2-156.343c16.457-14.4 39.086-22.629 59.657-22.629s43.2 8.229 59.657 22.629l187.2 156.343c14.4 10.286 16.457 30.857 4.114 43.2z" />
<glyph unicode="&#xecc7;" glyph-name="caret-up" data-tags="caret-up" horiz-adv-x="1317" d="M1306.286 288.343l-590.4 561.6c-30.857 28.8-82.286 28.8-113.143 0l-592.457-561.6c-12.343-12.343-12.343-30.857-2.057-43.2 6.171-6.171 14.4-10.286 22.629-10.286s14.4 2.057 20.571 8.229l592.457 561.6c8.229 8.229 20.571 8.229 28.8 0l592.457-561.6c12.343-12.343 32.914-10.286 43.2 2.057 12.343 12.343 10.286 32.914-2.057 43.2z" />
<glyph unicode="&#xecc9;" glyph-name="direction" data-tags="direction" horiz-adv-x="1317" d="M1252.8 829.371l-156.343 199.543c-6.171 8.229-14.4 12.343-24.686 12.343h-553.371v139.886c0 16.457-14.4 30.857-30.857 30.857s-30.857-14.4-30.857-30.857v-139.886h-370.286c-16.457 0-30.857-14.4-30.857-30.857v-399.086c0-16.457 14.4-30.857 30.857-30.857h368.229v-654.171c0-16.457 14.4-30.857 30.857-30.857s30.857 14.4 30.857 30.857v654.171h557.486c10.286 0 18.514 4.114 24.686 12.343l156.343 199.543c8.229 10.286 8.229 26.743-2.057 37.029zM1059.429 642.171h-942.171v337.371h940.114l131.657-168.686-129.6-168.686z" />
<glyph unicode="&#xece7;" glyph-name="stories" data-tags="stories" horiz-adv-x="1317" d="M1302.171 380.914l-127.543 80.229c-14.4 8.229-32.914 4.114-43.2-10.286s-4.114-32.914 10.286-43.2l86.4-53.486-569.829-355.886-569.829 357.943 86.4 53.486c14.4 8.229 18.514 28.8 10.286 43.2s-28.8 18.514-43.2 10.286l-127.543-80.229c-8.229-6.171-14.4-16.457-14.4-26.743s6.171-20.571 14.4-26.743l627.429-394.971c4.114-4.114 10.286-4.114 16.457-4.114s12.343 2.057 16.457 4.114l627.429 394.971c8.229 6.171 14.4 16.457 14.4 26.743s-6.171 20.571-14.4 24.686zM545.143 391.2l96.686-59.657c4.114-4.114 10.286-4.114 16.457-4.114s12.343 2.057 16.457 4.114l96.686 59.657c14.4 8.229 18.514 28.8 10.286 43.2s-28.8 18.514-43.2 10.286l-80.229-51.429-80.229 49.371c-14.4 8.229-32.914 4.114-43.2-10.286s-4.114-32.914 10.286-41.143zM250.971 576.343l154.286-96.686c4.114-4.114 10.286-4.114 16.457-4.114 10.286 0 20.571 4.114 26.743 14.4 8.229 14.4 4.114 32.914-10.286 43.2l-154.286 96.686c-14.4 8.229-32.914 4.114-43.2-10.286-8.229-14.4-4.114-32.914 10.286-43.2zM14.4 726.514l96.686-59.657c4.114-4.114 10.286-4.114 16.457-4.114 10.286 0 20.571 4.114 26.743 14.4 8.229 14.4 4.114 32.914-10.286 43.2l-53.486 34.971 53.486 34.971c14.4 8.229 18.514 28.8 10.286 43.2s-28.8 18.514-43.2 10.286l-96.686-59.657c-8.229-12.343-14.4-22.629-14.4-32.914s6.171-20.571 14.4-24.686zM267.429 870.514c6.171 0 10.286 2.057 16.457 4.114l154.286 96.686c14.4 8.229 18.514 28.8 10.286 43.2s-28.8 18.514-43.2 10.286l-154.286-96.686c-14.4-8.229-18.514-28.8-10.286-43.2 6.171-10.286 16.457-14.4 26.743-14.4zM578.057 1059.771l80.229 49.371 80.229-49.371c4.114-4.114 10.286-4.114 16.457-4.114 10.286 0 20.571 4.114 26.743 14.4 8.229 14.4 4.114 32.914-10.286 43.2l-96.686 59.657c-10.286 6.171-22.629 6.171-32.914 0l-96.686-59.657c-14.4-8.229-18.514-28.8-10.286-43.2 10.286-14.4 28.8-18.514 43.2-10.286zM878.4 971.314l154.286-96.686c4.114-4.114 10.286-4.114 16.457-4.114 10.286 0 20.571 4.114 26.743 14.4 8.229 14.4 4.114 32.914-10.286 43.2l-154.286 96.686c-14.4 8.229-32.914 4.114-43.2-10.286-8.229-14.4-4.114-32.914 10.286-43.2zM1164.343 675.086c6.171-10.286 16.457-14.4 26.743-14.4 6.171 0 10.286 2.057 16.457 4.114l96.686 59.657c8.229 6.171 14.4 16.457 14.4 26.743s-6.171 20.571-14.4 26.743l-96.686 59.657c-14.4 8.229-32.914 4.114-43.2-10.286-8.229-14.4-4.114-32.914 10.286-43.2l53.486-34.971-53.486-30.857c-16.457-10.286-20.571-28.8-10.286-43.2zM894.857 475.543c6.171 0 10.286 2.057 16.457 4.114l154.286 96.686c14.4 8.229 18.514 28.8 10.286 43.2s-28.8 18.514-43.2 10.286l-154.286-96.686c-14.4-8.229-18.514-28.8-10.286-43.2 6.171-10.286 16.457-14.4 26.743-14.4z" />
<glyph unicode="&#xeceb;" glyph-name="acf" data-tags="acf" horiz-adv-x="1317" d="M1285.714 1212h-1254.857c-16.457 0-30.857-14.4-30.857-30.857v-761.143c0-18.514 14.4-30.857 30.857-30.857h1254.857c16.457 0 30.857 14.4 30.857 30.857v761.143c0 16.457-14.4 30.857-30.857 30.857zM1254.857 450.857h-1193.143v699.429h1193.143v-699.429zM1164.343 191.657h-1012.114c-16.457 0-30.857-14.4-30.857-30.857s14.4-30.857 30.857-30.857h1012.114c16.457 0 30.857 14.4 30.857 30.857s-14.4 30.857-30.857 30.857zM1164.343-42.857h-1012.114c-16.457 0-30.857-14.4-30.857-30.857s14.4-30.857 30.857-30.857h1012.114c16.457 0 30.857 14.4 30.857 30.857s-14.4 30.857-30.857 30.857z" />
<glyph unicode="&#xed0d;" glyph-name="home" data-tags="home" horiz-adv-x="1317" d="M1170.514 642.171c-16.457 0-30.857-14.4-30.857-30.857v-654.171h-337.371v483.429c0 16.457-14.4 30.857-30.857 30.857h-226.286c-16.457 0-30.857-14.4-30.857-30.857v-483.429h-337.371v654.171c0 16.457-14.4 30.857-30.857 30.857s-30.857-14.4-30.857-30.857v-685.029c0-16.457 14.4-30.857 30.857-30.857h1026.514c16.457 0 30.857 14.4 30.857 30.857v685.029c-2.057 16.457-16.457 30.857-32.914 30.857zM576-42.857v452.571h164.571v-452.571h-164.571zM1302.171 802.629l-627.429 405.257c-10.286 6.171-22.629 6.171-32.914 0l-627.429-405.257c-14.4-10.286-18.514-28.8-10.286-43.2s28.8-18.514 43.2-8.229l610.971 392.914 610.971-392.914c6.171-4.114 10.286-4.114 16.457-4.114 10.286 0 20.571 4.114 26.743 14.4 8.229 12.343 4.114 30.857-10.286 41.143z" />
<glyph unicode="&#xed1f;" glyph-name="toolbox" data-tags="toolbox" horiz-adv-x="1317" d="M1160.229 926.057h-242.743v82.286c0 80.229-65.829 144-144 144h-228.343c-80.229 0-144-65.829-144-144v-82.286h-244.8c-84.343 0-154.286-69.943-154.286-154.286v-218.057c0-16.457 14.4-30.857 30.857-30.857h26.743v-518.4c0-28.8 22.629-51.429 51.429-51.429h1096.457c28.8 0 51.429 22.629 51.429 51.429v518.4h26.743c16.457 0 30.857 14.4 30.857 30.857v218.057c-2.057 84.343-69.943 154.286-156.343 154.286zM460.8 1008.343c0 45.257 37.029 82.286 82.286 82.286h228.343c45.257 0 82.286-37.029 82.286-82.286v-82.286h-392.914v82.286zM63.771 771.771c0 51.429 41.143 92.571 92.571 92.571h1005.943c51.429 0 92.571-41.143 92.571-92.571v-187.2h-1191.086v187.2zM1197.257 14.743h-1077.943v508.114h279.771v-139.886c0-16.457 14.4-30.857 30.857-30.857s30.857 14.4 30.857 30.857v139.886h392.914v-139.886c0-16.457 14.4-30.857 30.857-30.857s30.857 14.4 30.857 30.857v139.886h279.771v-508.114z" />
<glyph unicode="&#xed35;" glyph-name="comments" data-tags="comments" horiz-adv-x="1317" d="M1285.714 1096.8h-1254.857c-16.457 0-30.857-12.343-30.857-30.857v-1026.514c0-10.286 6.171-20.571 14.4-26.743 4.114-2.057 10.286-4.114 16.457-4.114s10.286 2.057 14.4 4.114l392.914 224.229h847.543c16.457 0 30.857 14.4 30.857 30.857v798.171c0 18.514-14.4 30.857-30.857 30.857zM1254.857 298.629h-824.914c-6.171 0-10.286-2.057-14.4-4.114l-353.829-201.6v942.171h1193.143v-736.457zM316.8 543.429c67.886 0 123.429 55.543 123.429 123.429s-55.543 123.429-123.429 123.429-123.429-55.543-123.429-123.429 55.543-123.429 123.429-123.429zM316.8 728.571c34.971 0 61.714-26.743 61.714-61.714s-26.743-61.714-61.714-61.714-61.714 26.743-61.714 61.714 26.743 61.714 61.714 61.714zM658.286 543.429c67.886 0 123.429 55.543 123.429 123.429s-55.543 123.429-123.429 123.429-123.429-55.543-123.429-123.429 55.543-123.429 123.429-123.429zM658.286 728.571c34.971 0 61.714-26.743 61.714-61.714s-26.743-61.714-61.714-61.714-61.714 26.743-61.714 61.714 26.743 61.714 61.714 61.714zM999.771 543.429c67.886 0 123.429 55.543 123.429 123.429s-55.543 123.429-123.429 123.429-123.429-55.543-123.429-123.429 55.543-123.429 123.429-123.429zM999.771 728.571c34.971 0 61.714-26.743 61.714-61.714s-26.743-61.714-61.714-61.714-61.714 26.743-61.714 61.714 28.8 61.714 61.714 61.714z" />
<glyph unicode="&#xed3a;" glyph-name="job" data-tags="job" horiz-adv-x="1317" d="M1242.514 1177.029c-39.086 30.857-90.514 41.143-137.829 28.8l-767.314-187.2h-158.4c-90.514 0-164.571-74.057-164.571-164.571v-341.486c0-80.229 57.6-148.114 133.714-160.457l100.8-432c4.114-14.4 16.457-24.686 30.857-24.686h168.686c10.286 0 18.514 4.114 24.686 12.343s8.229 16.457 6.171 26.743l-94.629 405.257 720-176.914c12.343-4.114 26.743-4.114 39.086-4.114 34.971 0 69.943 12.343 98.743 34.971 39.086 30.857 59.657 74.057 59.657 123.429v740.571c0 45.257-22.629 90.514-59.657 119.314zM372.343 965.143l306.514 74.057v-709.714l-306.514 76.114v559.543zM76.114 512.571v343.543c0 55.543 45.257 102.857 102.857 102.857h133.714v-547.2h-133.714c-57.6 0-102.857 45.257-102.857 100.8zM304.457-42.857l-88.457 382.629h104.914l88.457-382.629h-104.914zM1240.457 315.086c0-28.8-12.343-55.543-37.029-74.057s-55.543-24.686-86.4-18.514l-376.457 92.571v740.571l378.514 92.571c30.857 8.229 61.714 0 86.4-18.514 22.629-18.514 37.029-45.257 37.029-74.057v-740.571z" />
<glyph unicode="&#xed4d;" glyph-name="post" data-tags="post" horiz-adv-x="1317" d="M1168.457 1212h-1020.343c-16.457 0-30.857-14.4-30.857-30.857v-1254.857c0-16.457 14.4-30.857 30.857-30.857h1020.343c16.457 0 30.857 14.4 30.857 30.857v1254.857c0 16.457-14.4 30.857-30.857 30.857zM1137.6-42.857h-958.629v1193.143h958.629v-1193.143zM672.686 607.2h341.486c16.457 0 30.857 14.4 30.857 30.857v374.4c0 16.457-14.4 30.857-30.857 30.857h-341.486c-16.457 0-30.857-14.4-30.857-30.857v-374.4c0-16.457 12.343-30.857 30.857-30.857zM703.543 981.6h279.771v-312.686h-279.771v312.686zM306.514 981.6h195.429c16.457 0 30.857 14.4 30.857 30.857s-14.4 30.857-30.857 30.857h-195.429c-16.457 0-30.857-14.4-30.857-30.857s14.4-30.857 30.857-30.857zM306.514 794.4h195.429c16.457 0 30.857 14.4 30.857 30.857s-14.4 30.857-30.857 30.857h-195.429c-16.457 0-30.857-14.4-30.857-30.857s14.4-30.857 30.857-30.857zM306.514 607.2h195.429c16.457 0 30.857 14.4 30.857 30.857s-14.4 30.857-30.857 30.857h-195.429c-16.457 0-30.857-14.4-30.857-30.857s14.4-30.857 30.857-30.857zM306.514 420h705.6c16.457 0 30.857 14.4 30.857 30.857s-14.4 30.857-30.857 30.857h-705.6c-16.457 0-30.857-14.4-30.857-30.857s14.4-30.857 30.857-30.857zM306.514 232.8h705.6c16.457 0 30.857 14.4 30.857 30.857s-14.4 30.857-30.857 30.857h-705.6c-16.457 0-30.857-14.4-30.857-30.857s14.4-30.857 30.857-30.857zM306.514 45.6h705.6c16.457 0 30.857 14.4 30.857 30.857s-14.4 30.857-30.857 30.857h-705.6c-16.457 0-30.857-14.4-30.857-30.857s14.4-30.857 30.857-30.857z" />
<glyph unicode="&#xed64;" glyph-name="support" data-tags="support" horiz-adv-x="1317" d="M64.152 1031.373c-11.386-2.566-27.267-10.749-35.285-18.185-29.865-27.689-28.867-11.818-28.867-459.566 0-369.509 0.859-413.537 8.337-428.307 18.273-36.082 42.567-51.475 79.935-50.631 21.759 0.489 39.95 9.345 159.809 77.791l135.252 77.241h420.079c271.646 0 428.904 1.893 445.042 5.354 28.255 6.058 50.415 23.945 60.974 49.217 10.569 25.293 10.569 672.994 0 698.287-10.558 25.272-32.719 43.159-60.974 49.217-31.521 6.763-1154.211 6.367-1184.302-0.417M1251.735 962.15c4.623-12.045 3.636-651.662-1.013-658.98-3.065-4.824-104.59-6.598-441.278-7.714l-437.297-1.455-136.918-78.429c-75.302-43.133-142.375-78.429-149.045-78.429s-14.904 2.777-18.298 6.171c-4.695 4.695-6.171 102.42-6.171 408.435 0 221.246 1.404 405.926 3.122 410.4 2.823 7.354 59.894 8.136 593.45 8.136s590.626-0.782 593.45-8.136M191.53 862.188c-6.387-2.607-14.235-10.502-17.445-17.542-8.043-17.65 5.148-37.389 27.73-41.508 9.216-1.682 117.766-2.366 241.221-1.522 212.328 1.445 225.051 2.057 235.286 11.325 13.814 12.507 13.814 29.613 0 42.12-10.27 9.298-22.701 9.849-243 10.836-132.696 0.591-237.158-0.993-243.792-3.708M953.789 855.564c-32.724-15.629-53.789-39.934-53.789-62.074 0-34.365 32.523-40.335 59.472-10.918 14.102 15.393 19.795 18 39.327 18 46.625 0 64.759-48.039 29.515-78.202-48.662-41.637-54.468-50.678-59.313-92.355-2.71-23.338-1.517-29.556 7.992-41.585 12.811-16.2 30.837-18.386 42.434-5.143 4.335 4.953 9.031 21.636 10.435 37.080 2.031 22.377 5.030 29.654 14.77 35.83 28.008 17.758 54.987 49.747 61.097 72.437 23.112 85.834-71.851 165.173-151.941 126.931M177.722 681.139c-11.479-16.385-9.931-27.453 5.544-39.621 12.831-10.095 19.934-10.661 133.946-10.661h120.399l12.945 12.945c9.437 9.437 12.019 16.051 9.53 24.429-6.953 23.421-12.513 24.341-147.060 24.341-125.717 0-127.399-0.144-135.303-11.433M180 512.571c-5.657-5.657-10.286-14.914-10.286-20.571s4.629-14.914 10.286-20.571c9.9-9.9 17.141-10.286 192.482-10.286h182.201l10.656 13.551c13.325 16.941 13.402 24.85 0.375 37.877-9.9 9.9-17.141 10.286-192.857 10.286s-182.957-0.386-192.857-10.286M968.673 482.095c-31.644-19.296-34.853-66.122-6.187-90.242 32.133-27.036 80.193-12.621 92.268 27.684 14.899 49.731-40.767 90.185-86.081 62.558" />
<glyph unicode="&#xed71;" glyph-name="search-console" data-tags="search-console" horiz-adv-x="1317" d="M1285.714 1212h-1254.857c-16.457 0-30.857-14.4-30.857-30.857v-1254.857c0-16.457 14.4-30.857 30.857-30.857h1254.857c16.457 0 30.857 14.4 30.857 30.857v1254.857c0 16.457-14.4 30.857-30.857 30.857zM1254.857-42.857h-1193.143v448.457c6.171 0 12.343 2.057 16.457 8.229l183.086 162.514c18.514-14.4 43.2-22.629 67.886-22.629 39.086 0 72 18.514 94.629 47.314l115.2-67.886c-4.114-10.286-4.114-22.629-4.114-32.914 0-63.771 51.429-115.2 115.2-115.2s115.2 51.429 115.2 115.2v14.4l168.686 156.343c20.571-18.514 47.314-30.857 78.171-30.857 63.771 0 115.2 51.429 115.2 115.2s-51.429 115.2-115.2 115.2-115.2-51.429-115.2-115.2c0-12.343 2.057-22.629 4.114-32.914l-164.571-148.114c-20.571 26.743-53.486 43.2-88.457 43.2-30.857 0-57.6-12.343-78.171-30.857l-125.486 76.114v8.229c0 63.771-51.429 115.2-115.2 115.2s-115.2-51.429-115.2-115.2c0-16.457 4.114-32.914 10.286-45.257l-160.457-144v668.571h1193.143v-1193.143zM329.143 617.486c-30.857 0-53.486 24.686-53.486 53.486s24.686 53.486 53.486 53.486 53.486-24.686 53.486-53.486-24.686-53.486-53.486-53.486zM701.486 500.229c0-30.857-24.686-53.486-53.486-53.486s-53.486 24.686-53.486 53.486 24.686 53.486 53.486 53.486 53.486-22.629 53.486-53.486zM954.514 755.314c0 30.857 24.686 53.486 53.486 53.486s53.486-24.686 53.486-53.486-24.686-53.486-53.486-53.486-53.486 24.686-53.486 53.486z" />
<glyph unicode="&#xed73;" glyph-name="cart" data-tags="cart" horiz-adv-x="1317" d="M1201.371 483.771l115.2 512.229c2.057 8.229 0 18.514-6.171 26.743s-14.4 12.343-24.686 12.343h-987.429l-8.229 139.886c0 16.457-14.4 28.8-30.857 28.8h-228.343c-16.457-2.057-30.857-16.457-30.857-32.914s14.4-30.857 30.857-30.857h199.543l55.543-905.143c0-16.457 14.4-28.8 30.857-28.8h855.771c16.457 0 30.857 14.4 30.857 30.857s-14.4 30.857-30.857 30.857h-826.971l-12.343 193.371h839.314c14.4 0 26.743 10.286 28.8 22.629zM329.143 522.857l-26.743 448.457h944.229l-100.8-448.457h-816.686zM450.514 142.286c-65.829 0-119.314-53.486-119.314-119.314s53.486-119.314 119.314-119.314 119.314 53.486 119.314 119.314c-2.057 67.886-55.543 119.314-119.314 119.314zM450.514-32.571c-30.857 0-57.6 24.686-57.6 57.6 0 30.857 24.686 57.6 57.6 57.6s57.6-24.686 57.6-57.6c-2.057-30.857-26.743-57.6-57.6-57.6zM1028.571 142.286c-65.829 0-119.314-53.486-119.314-119.314s53.486-119.314 119.314-119.314c65.829 0 119.314 53.486 119.314 119.314 0 67.886-53.486 119.314-119.314 119.314zM1028.571-32.571c-30.857 0-57.6 24.686-57.6 57.6 0 30.857 24.686 57.6 57.6 57.6 30.857 0 57.6-24.686 57.6-57.6 0-30.857-24.686-57.6-57.6-57.6z" />
<glyph unicode="&#xed83;" glyph-name="attachment" data-tags="attachment" horiz-adv-x="1317" d="M1001.829 814.971c-16.457 0-30.857-14.4-30.857-30.857v-541.029c2.057-76.114-28.8-146.057-86.4-203.657-57.6-55.543-135.771-86.4-216-82.286-86.4 0-176.914 32.914-230.4 86.4-57.6 53.486-90.514 127.543-90.514 201.6v693.257c0 69.943 32.914 131.657 94.629 170.743 59.657 41.143 133.714 51.429 203.657 26.743l8.229-2.057c8.229-2.057 16.457-4.114 22.629-10.286 78.171-39.086 121.371-109.029 121.371-189.257v-592.457c0-41.143-14.4-80.229-39.086-109.029-4.114-6.171-8.229-8.229-10.286-10.286-24.686-24.686-57.6-37.029-90.514-37.029-39.086 0-76.114 16.457-100.8 47.314-26.743 30.857-41.143 69.943-41.143 111.086v497.829c0 16.457-14.4 30.857-30.857 30.857s-30.857-14.4-30.857-30.857v-495.771c0-55.543 20.571-109.029 55.543-150.171 34.971-43.2 90.514-67.886 148.114-67.886 49.371 0 94.629 18.514 133.714 53.486l14.4 14.4c34.971 41.143 53.486 92.571 53.486 150.171v590.4c0 102.857-57.6 193.371-154.286 242.743-12.343 8.229-24.686 10.286-34.971 14.4l-6.171 2.057c-88.457 30.857-183.086 18.514-257.143-34.971-78.171-51.429-121.371-131.657-121.371-222.171v-693.257c0-90.514 39.086-178.971 109.029-244.8 65.829-61.714 172.8-102.857 271.543-102.857h10.286c92.571 0 181.029 37.029 248.914 100.8 69.943 67.886 106.971 156.343 104.914 248.914v536.914c2.057 16.457-12.343 30.857-28.8 30.857z" />
<glyph unicode="&#xed91;" glyph-name="tag" data-tags="tag" horiz-adv-x="1317" d="M1242.514 1012.457c-6.171 6.171-16.457 10.286-26.743 8.229l-314.743-43.2c-82.286 123.429-234.514 265.371-481.371 228.343-16.457-2.057-28.8-18.514-26.743-34.971s18.514-28.8 34.971-26.743c201.6 30.857 329.143-72 405.257-174.857l-181.029-24.686c-6.171 0-12.343-4.114-16.457-8.229l-561.6-534.857c-6.171-6.171-10.286-14.4-10.286-22.629s4.114-16.457 10.286-22.629l479.314-452.571c6.171-6.171 14.4-8.229 20.571-8.229s14.4 2.057 20.571 8.229l563.657 532.8c4.114 4.114 8.229 10.286 10.286 18.514l82.286 530.743c2.057 10.286 0 20.571-8.229 26.743zM1110.857 475.543l-534.857-506.057-434.057 411.429 530.743 501.943 199.543 28.8c34.971-61.714 51.429-111.086 53.486-117.257 4.114-12.343 16.457-22.629 28.8-22.629 2.057 0 6.171 0 8.229 2.057 16.457 4.114 24.686 22.629 20.571 39.086 0 2.057-14.4 47.314-47.314 106.971l246.857 34.971-72-479.314z" />
<glyph unicode="&#xed95;" glyph-name="target" data-tags="target-alt-1" horiz-adv-x="1317" d="M466.971-40c-242.743 82.286-405.257 310.629-405.257 565.714 0 329.143 267.429 596.571 596.571 596.571 244.8 0 469.029-154.286 557.486-380.571 6.171-16.457 24.686-24.686 39.086-18.514 16.457 6.171 24.686 24.686 18.514 39.086-98.743 253.029-345.6 421.714-615.086 421.714-362.057 0-658.286-296.229-658.286-658.286 0-281.829 178.971-532.8 446.4-623.314 4.114-2.057 6.171-2.057 10.286-2.057 12.343 0 24.686 8.229 28.8 20.571 6.171 16.457-4.114 34.971-18.514 39.086zM658.286 700.571c39.086 0 74.057-12.343 104.914-34.971 14.4-10.286 32.914-8.229 43.2 6.171s8.229 32.914-6.171 43.2c-41.143 32.914-90.514 49.371-141.943 49.371-127.543 0-232.457-104.914-232.457-232.457 0-53.486 16.457-102.857 49.371-144 6.171-8.229 14.4-12.343 24.686-12.343 6.171 0 14.4 2.057 18.514 6.171 14.4 10.286 16.457 30.857 6.171 43.2-24.686 30.857-37.029 67.886-37.029 104.914 0 94.629 76.114 170.743 170.743 170.743zM956.571 589.486c-199.543 0-360-162.514-360-360s160.457-362.057 360-362.057 360 162.514 360 360-162.514 362.057-360 362.057zM956.571-70.857c-164.571 0-298.286 133.714-298.286 298.286s133.714 298.286 298.286 298.286 298.286-133.714 298.286-298.286-133.714-298.286-298.286-298.286zM499.886 180.114c-135.771 61.714-224.229 199.543-224.229 349.714 0 211.886 172.8 384.686 384.686 384.686 150.171 0 288-88.457 349.714-226.286 6.171-16.457 24.686-22.629 41.143-16.457s22.629 24.686 16.457 41.143c-74.057 160.457-234.514 263.314-409.371 263.314-244.8 0-446.4-199.543-446.4-446.4 0-174.857 102.857-333.257 261.257-405.257 4.114-2.057 8.229-2.057 12.343-2.057 12.343 0 22.629 6.171 28.8 18.514 8.229 14.4 0 32.914-14.4 39.086zM1075.886 317.943l-154.286-154.286-65.829 65.829c-12.343 12.343-30.857 12.343-43.2 0s-12.343-30.857 0-43.2l88.457-88.457c6.171-6.171 14.4-8.229 22.629-8.229s16.457 4.114 22.629 8.229l174.857 174.857c12.343 12.343 12.343 30.857 0 43.2s-32.914 14.4-45.257 2.057z" />
</font>
</defs>
</svg>
